Ссылка на приватное зеркало нашего сайта всего за 1$. Внимание количество ограничено!!!

2 сезон

iTunes

1 сезон

1

iTunes

iTunes

iTunes

1 сезон

RePack

30

ИГРА 18+

pack

ВАЖНО

!!Акция!!

Alien_RageХит недели

RePack

MK11
pack

Забери бонус

RePack

jed

!!Акция!!

Alien_Rage

RePack

fifa19

RePack

Assassins Creed: Odyssey

RePack

NEED FOR SPEED™ PAYBACK

4 сезон

9 сезон

Бесстыжие 9 сезон

Все сериалы

все сериалы на PB.wtf

RePack

FAR CRY 5
  

Неслучайные встречи / Серии: 1-4 из 4 (Владимир Мельниченко) [2019, Мелодрама, WEB-DLRip-AVC] pb.wtf

Неслучайные встречи через торрент pb.wtf

Размер: 2.29 GB | Добавлен: 7 мес. назад | Торрент скачан:29 раз
Скачать  

29-02-2020 13:00 Неслучайные встречи Скачать торрент  

Неслучайные встречи
Год выпуска: 2019
Страна: Украина
Жанр: Мелодрама
Продолжительность: ~ 00:45:00 серия
Перевод: Не требуется
Субтитры: отсутствуют

Режиссер: Владимир Мельниченко

В ролях: Екатерина Варченко, Прохор Дубравин, Елена Яблочная, Роман Мацюта, Алексей Тритенко, Елизавета Майская, Евфросиния Мельник, Алексей Нагрудный

Описание: Даше скоро 30, но она так и не смогла найти свою любовь и место в жизни. Даша - талантливый живописец, но после неудачного романа у нее пропало вдохновение и теперь она работает дизайнером в рекламном агентстве. А еще Даша не может пройти мимо любой несправедливости или человека, которому нужна помощь.

Качество: WEB-DLRip-AVC
Формат: MKV

Видео: MPEG-4 AVC, ~ 1600 Кбит/с, 1024x576, 25 кадр/с
Аудио: 48 kHz, AC3, 2/0 (L,R) ch, ~192 kbps
скриншот  скриншот  скриншот  скриншот  

General
Unique ID : 178670282829063308309055634672403793866 (0x866AA510C72F4A32A729E565E106C7CA)
Complete name : F:\Неслучайные встречи.(2019).WEB-DLRip.(AVC).Files-x\0.Неслучайные встречи.(2019)WEB-DLRip.(AVC).by.Серый1779.Files-x.mkv
Format : Matroska
Format version : Version 2
File size : 618 MiB
Duration : 48 min 10 s
Overall bit rate : 1 793 kb/s
Encoded date : UTC 2020-02-29 05:47:31
Writing application : mkvmerge v7.8.0 ('River Man') 32bit built on Apr 3 2015 12:11:22
Writing library : libebml v1.3.1 + libmatroska v1.4.2

Video
ID : 1
Format : AVC
Format/Info : Advanced Video Codec
Format profile : High@L4.1
Format settings : CABAC / 9 Ref Frames
Format settings, CABAC : Yes
Format settings, RefFrames : 9 frames
Codec ID : V_MPEG4/ISO/AVC
Duration : 48 min 10 s
Bit rate : 1 600 kb/s
Width : 1 024 pixels
Height : 576 pixels
Display aspect ratio : 16:9
Frame rate mode : Constant
Frame rate : 25.000 FPS
Color space : YUV
Chroma subsampling : 4:2:0
Bit depth : 8 bits
Scan type : Progressive
Bits/(Pixel*Frame) : 0.109
Stream size : 540 MiB (87%)
Writing library : x264 core 146 r2538 121396c
Encoding settings : cabac=1 / ref=9 / deblock=1:-2:-1 / analyse=0x3:0x133 / me=umh / subme=9 / psy=1 / psy_rd=1.00:0.15 / mixed_ref=1 / me_range=32 / chroma_me=1 / trellis=2 / 8x8dct=1 / cqm=0 / deadzone=21,11 / fast_pskip=0 / chroma_qp_offset=-3 / threads=18 / lookahead_threads=3 / sliced_threads=0 / nr=0 / decimate=1 / interlaced=0 / bluray_compat=0 / constrained_intra=0 / bframes=9 / b_pyramid=2 / b_adapt=2 / b_bias=0 / direct=1 / weightb=1 / open_gop=0 / weightp=2 / keyint=250 / keyint_min=25 / scenecut=40 / intra_refresh=0 / rc=2pass / mbtree=0 / bitrate=1600 / ratetol=1.0 / qcomp=0.60 / qpmin=0 / qpmax=69 / qpstep=4 / cplxblur=20.0 / qblur=0.5 / ip_ratio=1.40 / pb_ratio=1.30 / aq=2:1.00
Default : Yes
Forced : No
Color range : Limited
Color primaries : BT.709
Transfer characteristics : BT.709
Matrix coefficients : BT.709

Audio
ID : 2
Format : AC-3
Format/Info : Audio Coding 3
Format settings, Endianness : Big
Codec ID : A_AC3
Duration : 48 min 10 s
Bit rate mode : Constant
Bit rate : 192 kb/s
Channel(s) : 2 channels
Channel positions : Front: L R
Sampling rate : 48.0 kHz
Frame rate : 31.250 FPS (1536 SPF)
Bit depth : 16 bits
Compression mode : Lossy
Stream size : 66.2 MiB (11%)
Service kind : Complete Main
Default : Yes
Forced : No

pb.wtf



Скачать Неслучайные встречи через торрент https://i87.fastpic.ru/big/2019/0921/6f/1c597e7b2e8f38fbe6afb5713c54756f.jpg Скачать фильм Неслучайные встречи через торрент бесплантно в хорошем качестве Описание: Даше скоро 30, но она так и не смогла найти свою любовь и место в жизни. Даша - талантливый живописец, но после неудачного романа ... 10 10 3
Торрент: Зарегистрирован [2020-02-29 13:00] · скачан: 29 раз
Статус: √ проверено
Размер: 2.29 GB
Как cкачать? Как скачать Неслучайные встречи через торрент | qTorrent

28-11-2019 20:33  

Отключить всю рекламу на сайте

    Дорогой пользователь! Огромная просьба, поблагодарите релизера, оцените раздачу и оставьте свои комментарий, если Вы скачали Неслучайные встречи через торрент бесплатно! Внесите свою лепту в развитие PiratBit!
    Комментировать посты могут только пользователи прошедшие не сложную регистрацию
    Показать сообщения:    

    Неслучайные встречи через торрент
    Скачать бесплатно Неслучайные встречи
    Неслучайные встречи скачать торрент
    Неслучайные встречи смотреть онлайн
    Cкачать фильм Неслучайные встречи бесплатно
    Неслучайные встречи скачать торрент в хорошем качестве
    Неслучайные встречи смотреть онлайн бесплатно в хорошем качестве


    Вы не можете начинать темы
    Вы не можете отвечать на сообщения
    Вы не можете редактировать свои сообщения
    Вы не можете удалять свои сообщения
    Вы не можете голосовать в опросах
    Вы не можете прикреплять файлы к сообщениям
    Вы можете скачивать файлы