Ссылка на приватное зеркало нашего сайта всего за 1$. Внимание количество ограничено!!!

2 сезон

iTunes

1 сезон

1

2 сезон

2 сезон

iTunes

1 сезон

RePack

30

Ultimate

ВАЖНО

ИГРА 18+

pack

RePack

MK11
pack

Забери бонус

RePack

jed

!!Акция!!

Alien_Rage

RePack

fifa19

RePack

Assassins Creed: Odyssey

RePack

NEED FOR SPEED™ PAYBACK

4 сезон

9 сезон

Бесстыжие 9 сезон

Все сериалы

все сериалы на PB.wtf

RePack

FAR CRY 5
  

Сокровище Амазонки / The Rundown (Питер Берг) [2003, боевик, триллер, комедия, приключения, WEB-DL 1080p, (Open Matte)] DUB+MVO+DVO+3xAVO pb.wtf

Сокровище Амазонки через торрент pb.wtf

Размер: 10.09 GB | Добавлен: 8 мес. назад | Торрент скачан:119 раз
Скачать  

29-02-2020 17:30 Сокровище Амазонки Скачать торрент  

Сокровище Амазонки | The Rundown Год выпуска: 2003
Страна: США
Жанр: боевик, триллер, комедия, приключения
Продолжительность: 01:44:16
Перевод: Дублированный, Профессиональный (многоголосый, закадровый), Профессиональный (двухголосый, закадровый), Авторский (одноголосый закадровый)
Субтитры: Русские, английские

Режиссер: Питер Берг

rating

В ролях: Дуэйн Джонсон, Шонн Уильям Скотт, Розарио Доусон, Кристофер Уокен, Ивен Бремнер, Джон Гриз, Уильям Лакинг, Эрни Рейс мл., Стюарт Ф. Уилсон, Дэннис Кейффер, Гаррет Уоррен, Тоби Холгин, Пол С. Пауэр, Стивен Бишоп, Чак Норман

Описание: Солдат удачи получает задание найти и убрать опасного преступника, скрывающегося в джунглях Амазонки. Каково же было его удивление, когда он обнаружил, что беглец - это всего лишь юноша, одержимый идеей поиска богатств страны Эльдорадо.
Наемник заражается энтузиазмом парня, и они вдвоем продолжают исследование заброшенной шахты, обещающее сделать их самыми богатыми людьми на свете. Но подобный расклад не устраивает главу местной мафии, который тоже не прочь прибрать сокровища древней цивилизации к своим рукам…

Качество: WEB-DL 1080p | Open Matte
Формат: MKV

Видео: 1920x1080, 23.976 fps, MPEG-4 AVC, 10.4 Mb/s
Аудио 1: Russian: 48 kHz, AC3, 6 ch, ~640 kbps avg - DUB
Аудио 2: Russian: 48 kHz, AC3, 6 ch, ~384 kbps avg - MVO
Аудио 3: Russian: 48 kHz, AC3, 6 ch, ~384 kbps avg - DVO
Аудио 4: Russian: 48 kHz, AC3, 6 ch, ~448 kbps avg - AVO Гаврилов
Аудио 5: Russian: 48 kHz, AC3, 6 ch, ~640 kbps avg - AVO Живов
Аудио 6: Russian: 48 kHz, AC3, 6 ch, ~384 kbps avg - AVO Рудой
Аудио 7: English: 48 kHz, E-AC3, 6 ch, ~640 kbps avg
скриншот  скриншот  скриншот  скриншот  скриншот  

General
Unique ID : 234947796866952350483326938929915135118 (0xB0C14CBB7555F62FAF909F693542848E)
Complete name : D:The.Rundown.2003.Open.Matte.1080p.WEB-DL.mkv
Format : Matroska
Format version : Version 4
File size : 10.1 GiB
Duration : 1 h 44 min
Overall bit rate mode : Variable
Overall bit rate : 13.8 Mb/s
Movie name : The Rundown (2003)
Encoded date : UTC 2020-01-05 17:38:20
Writing application : mkvmerge v8.3.0 ('Over the Horizon') 32bit
Writing library : libebml v1.3.1 + libmatroska v1.4.2

Video
ID : 1
Format : AVC
Format/Info : Advanced Video Codec
Format profile : High@L4
Format settings : CABAC / 4 Ref Frames
Format settings, CABAC : Yes
Format settings, Reference : 4 frames
Codec ID : V_MPEG4/ISO/AVC
Duration : 1 h 44 min
Bit rate mode : Variable
Bit rate : 10.4 Mb/s
Maximum bit rate : 15.0 Mb/s
Width : 1 920 pixels
Height : 1 080 pixels
Display aspect ratio : 16:9
Frame rate mode : Constant
Frame rate : 23.976 (24000/1001) FPS
Color space : YUV
Chroma subsampling : 4:2:0
Bit depth : 8 bits
Scan type : Progressive
Bits/(Pixel*Frame) : 0.208
Stream size : 7.54 GiB (75%)
Title : WEB-DL 1080p (Amazon)
Language : English
Default : Yes
Forced : No
Color range : Limited
Color primaries : BT.709
Transfer characteristics : BT.709
Matrix coefficients : BT.709

Audio #1
ID : 2
Format : AC-3
Format/Info : Audio Coding 3
Commercial name : Dolby Digital
Codec ID : A_AC3
Duration : 1 h 44 min
Bit rate mode : Constant
Bit rate : 640 kb/s
Channel(s) : 6 channels
Channel layout : L R C LFE Ls Rs
Sampling rate : 48.0 kHz
Frame rate : 31.250 FPS (1536 SPF)
Bit depth : 16 bits
Compression mode : Lossy
Stream size : 477 MiB (5%)
Title : DUB
Language : Russian
Service kind : Complete Main
Default : Yes
Forced : No

Audio #2
ID : 3
Format : AC-3
Format/Info : Audio Coding 3
Commercial name : Dolby Digital
Codec ID : A_AC3
Duration : 1 h 39 min
Bit rate mode : Constant
Bit rate : 384 kb/s
Channel(s) : 6 channels
Channel layout : L R C LFE Ls Rs
Sampling rate : 48.0 kHz
Frame rate : 31.250 FPS (1536 SPF)
Bit depth : 16 bits
Compression mode : Lossy
Stream size : 272 MiB (3%)
Title : MVO
Language : Russian
Service kind : Complete Main
Default : No
Forced : No

Audio #3
ID : 4
Format : AC-3
Format/Info : Audio Coding 3
Commercial name : Dolby Digital
Codec ID : A_AC3
Duration : 1 h 44 min
Bit rate mode : Constant
Bit rate : 384 kb/s
Channel(s) : 6 channels
Channel layout : L R C LFE Ls Rs
Sampling rate : 48.0 kHz
Frame rate : 31.250 FPS (1536 SPF)
Bit depth : 16 bits
Compression mode : Lossy
Stream size : 286 MiB (3%)
Title : DVO
Language : Russian
Service kind : Complete Main
Default : No
Forced : No

Audio #4
ID : 5
Format : AC-3
Format/Info : Audio Coding 3
Commercial name : Dolby Digital
Codec ID : A_AC3
Duration : 1 h 44 min
Bit rate mode : Constant
Bit rate : 448 kb/s
Channel(s) : 6 channels
Channel layout : L R C LFE Ls Rs
Sampling rate : 48.0 kHz
Frame rate : 31.250 FPS (1536 SPF)
Bit depth : 16 bits
Compression mode : Lossy
Stream size : 334 MiB (3%)
Title : AVO Гаврилов
Language : Russian
Service kind : Complete Main
Default : No
Forced : No

Audio #5
ID : 6
Format : AC-3
Format/Info : Audio Coding 3
Commercial name : Dolby Digital
Codec ID : A_AC3
Duration : 1 h 44 min
Bit rate mode : Constant
Bit rate : 640 kb/s
Channel(s) : 6 channels
Channel layout : L R C LFE Ls Rs
Sampling rate : 48.0 kHz
Frame rate : 31.250 FPS (1536 SPF)
Bit depth : 16 bits
Compression mode : Lossy
Stream size : 477 MiB (5%)
Title : AVO Живов
Language : Russian
Service kind : Complete Main
Default : No
Forced : No

Audio #6
ID : 7
Format : AC-3
Format/Info : Audio Coding 3
Commercial name : Dolby Digital
Codec ID : A_AC3
Duration : 1 h 44 min
Bit rate mode : Constant
Bit rate : 384 kb/s
Channel(s) : 6 channels
Channel layout : L R C LFE Ls Rs
Sampling rate : 48.0 kHz
Frame rate : 31.250 FPS (1536 SPF)
Bit depth : 16 bits
Compression mode : Lossy
Stream size : 286 MiB (3%)
Title : AVO Рудой
Language : Russian
Service kind : Complete Main
Default : No
Forced : No

Audio #7
ID : 8
Format : E-AC-3
Format/Info : Enhanced AC-3
Commercial name : Dolby Digital Plus
Codec ID : A_EAC3
Duration : 1 h 44 min
Bit rate mode : Constant
Bit rate : 640 kb/s
Channel(s) : 6 channels
Channel layout : L R C LFE Ls Rs
Sampling rate : 48.0 kHz
Frame rate : 31.250 FPS (1536 SPF)
Compression mode : Lossy
Stream size : 477 MiB (5%)
Language : English
Service kind : Complete Main
Default : No
Forced : No

Text #1
ID : 9
Format : UTF-8
Codec ID : S_TEXT/UTF8
Codec ID/Info : UTF-8 Plain Text
Duration : 1 h 36 min
Bit rate : 82 b/s
Count of elements : 1068
Stream size : 58.8 KiB (0%)
Language : Russian
Default : No
Forced : No

Text #2
ID : 10
Format : UTF-8
Codec ID : S_TEXT/UTF8
Codec ID/Info : UTF-8 Plain Text
Duration : 1 h 37 min
Bit rate : 55 b/s
Count of elements : 1059
Stream size : 39.7 KiB (0%)
Language : English
Default : No
Forced : No

pb.wtf



Скачать Сокровище Амазонки через торрент https://img10.lostpic.net/2020/02/29/4c8a839e2e2c0d01e6fa9123ef8e5c7b.jpg Скачать фильм Сокровище Амазонки через торрент бесплантно в хорошем качестве Описание: Солдат удачи получает задание найти и убрать опасного преступника, скрывающегося в джунглях Амазонки. Каково же было его ... 10 10 8
Торрент: Зарегистрирован [2020-02-29 17:30] · скачан: 119 раз
Статус: √ проверено
Размер: 10.09 GB
Как cкачать? Как скачать Сокровище Амазонки через торрент | qTorrent



Последний раз редактировалось: bober100 (2020-02-29 19:29), всего редактировалось 1 раз

28-11-2019 20:33  

Отключить всю рекламу на сайте

    Дорогой пользователь! Огромная просьба, поблагодарите релизера, оцените раздачу и оставьте свои комментарий, если Вы скачали Сокровище Амазонки через торрент бесплатно! Внесите свою лепту в развитие PiratBit!
    Комментировать посты могут только пользователи прошедшие не сложную регистрацию
    Показать сообщения:    

    Сокровище Амазонки через торрент
    Скачать бесплатно Сокровище Амазонки
    Сокровище Амазонки скачать торрент
    Сокровище Амазонки смотреть онлайн
    Cкачать фильм Сокровище Амазонки бесплатно
    Сокровище Амазонки скачать торрент в хорошем качестве
    Сокровище Амазонки смотреть онлайн бесплатно в хорошем качестве


    Вы не можете начинать темы
    Вы не можете отвечать на сообщения
    Вы не можете редактировать свои сообщения
    Вы не можете удалять свои сообщения
    Вы не можете голосовать в опросах
    Вы не можете прикреплять файлы к сообщениям
    Вы можете скачивать файлы