Ссылка на приватное зеркало нашего сайта всего за 1$. Внимание количество ограничено!!!

2 сезон

iTunes

1 сезон

1

iTunes

iTunes

iTunes

1 сезон

RePack

30

ИГРА 18+

pack

ВАЖНО

!!Акция!!

Alien_RageХит недели

RePack

MK11
pack

Забери бонус

RePack

jed

!!Акция!!

Alien_Rage

RePack

fifa19

RePack

Assassins Creed: Odyssey

RePack

NEED FOR SPEED™ PAYBACK

4 сезон

9 сезон

Бесстыжие 9 сезон

Все сериалы

все сериалы на PB.wtf

RePack

FAR CRY 5
  

Сжигая за собой мосты / Серии: 1-4 из 4 (Александра Бутько) [2020, Детектив, WEB-DLRip] pb.wtf

Сжигая за собой мосты через торрент pb.wtf

Размер: 2 GB | Добавлен: 7 мес. назад | Торрент скачан:52 раза
Скачать  

29-02-2020 19:47 Сжигая за собой мосты Скачать торрент  

Сжигая за собой мосты
Год выпуска: 2020
Страна: Россия
Жанр: Детектив
Продолжительность: ~ 00:43:00 серия
Субтитры: отсутствуют

Режиссер: Александра Бутько



В ролях: Анна Нахапетова, Петр Нестеров, Артур Ваха, Антон Багров, Елена Мартыненко, Илья Носков, Маргарита Аброськина, Валентина Гарцуева, Александр Солдаткин, Ярослав Кузнецов, Дмитрий Лебедев

Описание: По роману Татьяны Поляковой. Анна - современная молодая женщина, которая живет здесь и сейчас. Она без особого энтузиазма воспринимает семейную историю, которой пытается увлечь ее пожилой отец. Приводя в порядок архив матери, советской разведчицы Нины Орловой, отец Анны узнает некую тайну. Но дочери он говорит пока немного и в самых общих чертах: у их семьи есть враг, и этого человека им надо опасаться. Отец встречается с неким писателем, который продает ему папку с информацией о последнем задании Орловой. В тот же день отца убивают, а папку похищают. Анна едет в Калининград, где отец прожил большую часть жизни, чтобы похоронить его. Там она обнаруживает, что за ней охотятся. Теперь, чтобы уцелеть, ей надо понять, что за тайна открылась отцу перед смертью и кто таинственный враг, преследующий их семью...

Качество: WEB-DLRip
Формат: AVI

Видео: XviD, ~ 1600 Кбит/с, 720x400, 25 кадр/с
Аудио: 48 kHz, AC3, 2/0 (L,R) ch, ~192 kbps
скриншот  скриншот  скриншот  скриншот  скриншот  

General
Complete name : F:\Сжигая за собой мосты.(2020).WEB-DLRip.Files-x\01.Сжигая за собой мосты.(2020).WEB-DLRip.by.Серый1779.Files-x.avi
Format : AVI
Format/Info : Audio Video Interleave
File size : 520 MiB
Duration : 40 min 18 s
Overall bit rate : 1 802 kb/s
Writing application : VirtualDubMod 1.5.10.3 | www.virtualdub-fr.org || (build 2550/release)
Writing library : VirtualDubMod build 2550/release

Video
ID : 0
Format : MPEG-4 Visual
Format profile : Advanced Simple@L5
Format settings : BVOP1 / Custom Matrix
Format settings, BVOP : 1
Format settings, QPel : No
Format settings, GMC : No warppoints
Format settings, Matrix : Custom
Codec ID : XVID
Codec ID/Hint : XviD
Duration : 40 min 18 s
Bit rate : 1 600 kb/s
Width : 720 pixels
Height : 400 pixels
Display aspect ratio : 16:9
Frame rate : 25.000 FPS
Color space : YUV
Chroma subsampling : 4:2:0
Bit depth : 8 bits
Scan type : Progressive
Compression mode : Lossy
Bits/(Pixel*Frame) : 0.222
Stream size : 461 MiB (89%)
Writing library : XviD 73

Audio
ID : 1
Format : AC-3
Format/Info : Audio Coding 3
Format settings, Endianness : Big
Codec ID : 2000
Duration : 40 min 18 s
Bit rate mode : Constant
Bit rate : 192 kb/s
Channel(s) : 2 channels
Channel positions : Front: L R
Sampling rate : 48.0 kHz
Frame rate : 31.250 FPS (1536 SPF)
Bit depth : 16 bits
Compression mode : Lossy
Stream size : 55.4 MiB (11%)
Alignment : Split accross interleaves
Interleave, duration : 40 ms (1.00 video frame)
Interleave, preload duration : 500 ms
Service kind : Complete Main

pb.wtf



Скачать Сжигая за собой мосты через торрент https://i111.fastpic.ru/big/2020/0229/d7/af1bfb72e8eb91f71e3d783d9f6619d7.jpg Скачать фильм Сжигая за собой мосты через торрент бесплантно в хорошем качестве Описание: По роману Татьяны Поляковой. Анна - современная молодая женщина, которая живет здесь и сейчас. Она без особого энтузиазма ... 10 10 3
Торрент: Зарегистрирован [2020-02-29 19:47] · скачан: 52 раз
Статус: √ проверено
Размер: 2 GB
Как cкачать? Как скачать Сжигая за собой мосты через торрент | qTorrent

% Раздел Тема Автор DL S | L
Наши сериалы [ 2.44 GB ] Сжигая за собой мосты / Серии: 1-4 из 4 [2020 WEB-DLRip-AVC] bober100 Скачать
1 | 0

28-11-2019 20:33  

Отключить всю рекламу на сайте

    Дорогой пользователь! Огромная просьба, поблагодарите релизера, оцените раздачу и оставьте свои комментарий, если Вы скачали Сжигая за собой мосты через торрент бесплатно! Внесите свою лепту в развитие PiratBit!
    Комментировать посты могут только пользователи прошедшие не сложную регистрацию
    Показать сообщения:    

    Сжигая за собой мосты через торрент
    Скачать бесплатно Сжигая за собой мосты
    Сжигая за собой мосты скачать торрент
    Сжигая за собой мосты смотреть онлайн
    Cкачать фильм Сжигая за собой мосты бесплатно
    Сжигая за собой мосты скачать торрент в хорошем качестве
    Сжигая за собой мосты смотреть онлайн бесплатно в хорошем качестве


    Вы не можете начинать темы
    Вы не можете отвечать на сообщения
    Вы не можете редактировать свои сообщения
    Вы не можете удалять свои сообщения
    Вы не можете голосовать в опросах
    Вы не можете прикреплять файлы к сообщениям
    Вы можете скачивать файлы