Ссылка на приватное зеркало нашего сайта всего за 1$. Внимание количество ограничено!!!

2 сезон

iTunes

1 сезон

1

iTunes

iTunes

iTunes

1 сезон

RePack

30

ИГРА 18+

pack

ВАЖНО

!!Акция!!

Alien_RageХит недели

RePack

MK11
pack

Забери бонус

RePack

jed

!!Акция!!

Alien_Rage

RePack

fifa19

RePack

Assassins Creed: Odyssey

RePack

NEED FOR SPEED™ PAYBACK

4 сезон

9 сезон

Бесстыжие 9 сезон

Все сериалы

все сериалы на PB.wtf

RePack

FAR CRY 5
  

Сжигая за собой мосты / Серии: 1-4 из 4 (Александра Бутько) [2020, Детектив, WEB-DLRip-AVC] pb.wtf

Сжигая за собой мосты через торрент pb.wtf

Раздают: 1 [ 0 KB/s ]
Размер: 2.44 GB | Добавлен: 7 мес. назад | Торрент скачан:75 раз
Скачать  

29-02-2020 20:36 Сжигая за собой мосты Скачать торрент  

Сжигая за собой мосты
Год выпуска: 2020
Страна: Россия
Жанр: Детектив
Продолжительность: ~ 00:43:00 серия
Субтитры: отсутствуют

Режиссер: Александра Бутько



В ролях: Анна Нахапетова, Петр Нестеров, Артур Ваха, Антон Багров, Елена Мартыненко, Илья Носков, Маргарита Аброськина, Валентина Гарцуева, Александр Солдаткин, Ярослав Кузнецов, Дмитрий Лебедев

Описание: По роману Татьяны Поляковой. Анна - современная молодая женщина, которая живет здесь и сейчас. Она без особого энтузиазма воспринимает семейную историю, которой пытается увлечь ее пожилой отец. Приводя в порядок архив матери, советской разведчицы Нины Орловой, отец Анны узнает некую тайну. Но дочери он говорит пока немного и в самых общих чертах: у их семьи есть враг, и этого человека им надо опасаться. Отец встречается с неким писателем, который продает ему папку с информацией о последнем задании Орловой. В тот же день отца убивают, а папку похищают. Анна едет в Калининград, где отец прожил большую часть жизни, чтобы похоронить его. Там она обнаруживает, что за ней охотятся. Теперь, чтобы уцелеть, ей надо понять, что за тайна открылась отцу перед смертью и кто таинственный враг, преследующий их семью...

Качество: WEB-DLRip-AVC
Формат: MKV

Видео: MPEG-4 AVC, ~ 1600 Кбит/с, 1024x576, 25 кадр/с
Аудио: 48 kHz, AC3, 2/0 (L,R) ch, ~192 kbps
скриншот  скриншот  скриншот  скриншот  скриншот  

General
Unique ID : 199479947899402291396858015527965780042 (0x961270C45FB1A233BFD1A820ECBB684A)
Complete name : F:\Сжигая за собой мосты.(2020).WEB-DLRip.(AVC).Files-x\01.Сжигая за собой мосты.(2020).WEB-DLRip.(AVC).by.Серый1779.Files-x.mkv
Format : Matroska
Format version : Version 2
File size : 632 MiB
Duration : 40 min 18 s
Overall bit rate : 2 193 kb/s
Encoded date : UTC 2020-02-29 16:45:57
Writing application : mkvmerge v7.8.0 ('River Man') 32bit built on Apr 3 2015 12:11:22
Writing library : libebml v1.3.1 + libmatroska v1.4.2

Video
ID : 1
Format : AVC
Format/Info : Advanced Video Codec
Format profile : High@L4.1
Format settings : CABAC / 9 Ref Frames
Format settings, CABAC : Yes
Format settings, RefFrames : 9 frames
Codec ID : V_MPEG4/ISO/AVC
Duration : 40 min 18 s
Bit rate : 2 000 kb/s
Width : 1 024 pixels
Height : 576 pixels
Display aspect ratio : 16:9
Frame rate mode : Constant
Frame rate : 25.000 FPS
Color space : YUV
Chroma subsampling : 4:2:0
Bit depth : 8 bits
Scan type : Progressive
Bits/(Pixel*Frame) : 0.136
Stream size : 564 MiB (89%)
Writing library : x264 core 146 r2538 121396c
Encoding settings : cabac=1 / ref=9 / deblock=1:-2:-1 / analyse=0x3:0x133 / me=umh / subme=9 / psy=1 / psy_rd=1.00:0.15 / mixed_ref=1 / me_range=32 / chroma_me=1 / trellis=2 / 8x8dct=1 / cqm=0 / deadzone=21,11 / fast_pskip=0 / chroma_qp_offset=-3 / threads=18 / lookahead_threads=3 / sliced_threads=0 / nr=0 / decimate=1 / interlaced=0 / bluray_compat=0 / constrained_intra=0 / bframes=9 / b_pyramid=2 / b_adapt=2 / b_bias=0 / direct=1 / weightb=1 / open_gop=0 / weightp=2 / keyint=250 / keyint_min=25 / scenecut=40 / intra_refresh=0 / rc=2pass / mbtree=0 / bitrate=2000 / ratetol=1.0 / qcomp=0.60 / qpmin=0 / qpmax=69 / qpstep=4 / cplxblur=20.0 / qblur=0.5 / ip_ratio=1.40 / pb_ratio=1.30 / aq=2:1.00
Default : Yes
Forced : No
Color range : Limited
Color primaries : BT.709
Transfer characteristics : BT.709
Matrix coefficients : BT.709

Audio
ID : 2
Format : AC-3
Format/Info : Audio Coding 3
Format settings, Endianness : Big
Codec ID : A_AC3
Duration : 40 min 18 s
Bit rate mode : Constant
Bit rate : 192 kb/s
Channel(s) : 2 channels
Channel positions : Front: L R
Sampling rate : 48.0 kHz
Frame rate : 31.250 FPS (1536 SPF)
Bit depth : 16 bits
Compression mode : Lossy
Stream size : 55.4 MiB (9%)
Service kind : Complete Main
Default : Yes
Forced : No

pb.wtf



Скачать Сжигая за собой мосты через торрент https://i111.fastpic.ru/big/2020/0229/d7/af1bfb72e8eb91f71e3d783d9f6619d7.jpg Скачать фильм Сжигая за собой мосты через торрент бесплантно в хорошем качестве Описание: По роману Татьяны Поляковой. Анна - современная молодая женщина, которая живет здесь и сейчас. Она без особого энтузиазма ... 10 10 4
Торрент: Зарегистрирован [2020-02-29 20:36] · скачан: 75 раз
Статус: √ проверено
Размер: 2.44 GB
Как cкачать? Как скачать Сжигая за собой мосты через торрент | qTorrent

% Раздел Тема Автор DL S | L
Наши сериалы [ 2 GB ] Сжигая за собой мосты / Серии: 1-4 из 4 [2020 WEB-DLRip] bober100 Скачать
2 | 0

28-11-2019 20:33  

Отключить всю рекламу на сайте

    Дорогой пользователь! Огромная просьба, поблагодарите релизера, оцените раздачу и оставьте свои комментарий, если Вы скачали Сжигая за собой мосты через торрент бесплатно! Внесите свою лепту в развитие PiratBit!
    Комментировать посты могут только пользователи прошедшие не сложную регистрацию
    Показать сообщения:    

    Сжигая за собой мосты через торрент
    Скачать бесплатно Сжигая за собой мосты
    Сжигая за собой мосты скачать торрент
    Сжигая за собой мосты смотреть онлайн
    Cкачать фильм Сжигая за собой мосты бесплатно
    Сжигая за собой мосты скачать торрент в хорошем качестве
    Сжигая за собой мосты смотреть онлайн бесплатно в хорошем качестве


    Вы не можете начинать темы
    Вы не можете отвечать на сообщения
    Вы не можете редактировать свои сообщения
    Вы не можете удалять свои сообщения
    Вы не можете голосовать в опросах
    Вы не можете прикреплять файлы к сообщениям
    Вы можете скачивать файлы