Всегда рабочее зеркало без VPN и Proxy просто перед .vidak.icu напиши любое слово или цифру, Пример http://0dm3.vidak.icu

MVO

Лицензия

1 сезон

1

1 сезон

iTunes

1 сезон

13

1 сезон

Deluxe

pack

Рекомендуем

Пиратка

30

ВАЖНО

RePack

MK11

RePack

jed

RePack

fifa19

RePack

RDR2

RePack

NEED FOR SPEED™ PAYBACK

Кинопоиск HD

6 сезон

 Острые козырьки 6 сезон

Все сериалы

все сериалы на PB.wtf

RePack

FAR CRY 5
  
Magnet ссылка

От любви до ненависти / Серии: 1-4 из 4 (Роман Барабаш) [2019, Мелодрама, HDTV 1080i] pb.wtf

От любви до ненависти через торрент pb.wtf

Размер: 8.38 GB | Добавлен: 2 года 4 мес. назад | Торрент скачан:53 раза
Смотреть онлайн От любви до ненависти | Скачать    Ребята, помогите собрать деньги на оплату серверов!!!

01-03-2020 01:56 От любви до ненависти Скачать торрент  

От любви до ненависти Год выпуска: 2019
Страна: Россия, Украина
Жанр: Мелодрама
Продолжительность: ~ 00:47:00 серия
Субтитры: отсутствуют

Режиссер: Роман Барабаш

В ролях: Дана Абызова, Дарья Легейда, Александр Давыдов, Оксана Жданова, Наталия Денисенко, Сергей Фролов, Олег Щербина, Максим Боряк

Описание: Екатерина Вавилова, молодой талантливый педагог-хореограф, случайно знакомится с Дмитрием, который приехал к ним в провинцию из столицы. Молодые люди влюбляются друг в друга и Катя уверена, что между ними всё серьёзно. Но огромная любовь сменяется ненавистью, унижением и горьким разочарованием. Жизнь девушки становится похожа на страшный сон. Катя становится объектом всеобщих насмешек, её выгоняют с работы, от неё отворачивается даже родной отец. Катя вынуждена сбежать из родного города. Но спустя семь лет прошлое, которое она так старалась забыть, возвращается к ней…

Качество: HDTV 1080i
Формат: TS

Видео: MPEG-4 AVC, ~ 5500 Кбит/с, 1920x1080, 25 кадр/с
Аудио: Русский (MP2, 2 ch, 192 Кбит/с)
скриншот  скриншот  скриншот  скриншот  

Общее
Идентификатор : 1 (0x1)
Полное имя : D:\Ot.lyubvi.do.nenavisti.2019.HDTV.1080i\Ot.lyubvi.do.nenavisti.01.2019.HDTV.1080i.ts
Формат : MPEG-TS
Размер файла : 1,93 Гбайт
Продолжительность : 46 м. 17 с.
Режим общего битрейта : Переменный
Общий поток : 5973 Кбит/сек

Видео
Идентификатор : 201 (0xC9)
Идентификатор меню : 1455 (0x5AF)
Формат : AVC
Формат/Информация : Advanced Video Codec
Профиль формата : High@L4
Параметр CABAC формата : Да
Параметр RefFrames формата : 4 кадра
Идентификатор кодека : 27
Продолжительность : 46 м. 17 с.
Битрейт : 5484 Кбит/сек
Ширина : 1920 пикселей
Высота : 1080 пикселей
Соотношение сторон : 16:9
Частота кадров : 25,000 кадров/сек
Стандарт вещания : Component
Цветовое пространство : YUV
Субдискретизация насыщенности : 4:2:0
Битовая глубина : 8 бит
Тип развёртки : Чересстрочная
Метод сохранения типа развёртки : Раздельные поля
Порядок развёртки : Верхнее поле первое
Бит/(Пиксели*Кадры) : 0.106
Размер потока : 1,77 Гбайт (92%)
Цветовой диапазон : Limited
Основные цвета : BT.709
Характеристики трансфера : BT.709
Коэффициенты матрицы : BT.709

Аудио
Идентификатор : 210 (0xD2)
Идентификатор меню : 1455 (0x5AF)
Формат : MPEG Audio
Версия формата : Version 1
Профиль формата : Layer 2
Идентификатор кодека : 3
Продолжительность : 46 м. 17 с.
Вид битрейта : Постоянный
Битрейт : 192 Кбит/сек
Каналы : 2 канала
Частота : 48,0 КГц
Метод сжатия : С потерями
Задержка видео : -120 мс.
Размер потока : 63,6 Мбайт (3%)
Язык : Russian

pb.wtf



Скачать От любви до ненависти через торрент https://d.radikal.ru/d13/1907/35/a24e9a7061a4.jpg Скачать, смотреть онлайн От любви до ненависти бесплантно в хорошем качестве Описание: Екатерина Вавилова, молодой талантливый педагог-хореограф, случайно знакомится с Дмитрием, который приехал к ним в провинцию из ... 10 10 5
Торрент: Зарегистрирован [2020-03-01 01:56] · скачан: 53 раз
Статус: √ проверено
Размер: 8.38 GB
Как cкачать? Как скачать От любви до ненависти через торрент | UTorrent

% Раздел Тема Автор DL S | L
Наши сериалы [ 2.38 GB ] От любви до ненависти / Серии: 1-4 из 4 [2019 Мело WEB-DLRip] bober100 Скачать
1 | 0
Наши сериалы [ 2.32 GB ] От любви до ненависти / Серии: 1-4 из 4 [2019 Мело WEB-DLRip-AVC] bober100 Скачать
1 | 0

28-11-2019 20:33  

Отключить всю рекламу на сайте

    Дорогой пользователь! Огромная просьба, поблагодарите релизера, оцените раздачу и оставьте свои комментарий, если Вы скачали От любви до ненависти через торрент бесплатно!
    Комментировать посты могут только пользователи прошедшие не сложную регистрацию
    Показать сообщения:    

    От любви до ненависти через торрент
    Скачать бесплатно От любви до ненависти
    От любви до ненависти скачать торрент
    От любви до ненависти смотреть онлайн
    Cкачать фильм От любви до ненависти бесплатно
    От любви до ненависти скачать торрент в хорошем качестве
    От любви до ненависти смотреть онлайн бесплатно в хорошем качестве


    Вы не можете начинать темы
    Вы не можете отвечать на сообщения
    Вы не можете редактировать свои сообщения
    Вы не можете удалять свои сообщения
    Вы не можете голосовать в опросах
    Вы не можете прикреплять файлы к сообщениям
    Вы можете скачивать файлы