Ссылка на приватное зеркало нашего сайта всего за 1$. Внимание количество ограничено!!!

2 сезон

iTunes

1 сезон

1

2 сезон

2 сезон

iTunes

1 сезон

RePack

30

Новинка

ВАЖНО

ИГРА 18+

pack

RePack

MK11
pack

Забери бонус

RePack

jed

!!Акция!!

Alien_Rage

RePack

fifa19

RePack

Assassins Creed: Odyssey

RePack

NEED FOR SPEED™ PAYBACK

4 сезон

9 сезон

Бесстыжие 9 сезон

Все сериалы

все сериалы на PB.wtf

RePack

FAR CRY 5
  

Девушка в лабиринте / L'uomo del labirinto (Донато Карризи) [2019, триллер, детектив, WEB-DL 1080p] DUB [iTunes] pb.wtf

Девушка в лабиринте через торрент pb.wtf

Раздают: 5 [ 0 KB/s ]
Размер: 4.54 GB | Добавлен: 8 мес. назад | Торрент скачан:252 раза
Скачать  

01-03-2020 18:43 Девушка в лабиринте Скачать торрент  

Девушка в лабиринте | L'uomo del labirinto
Год выпуска: 2019
Страна: Италия
Студия: Gavila, Colorado Film Production
Жанр: триллер, детектив
Продолжительность: 02:10:13
Перевод: Дублированный | iTunes
Субтитры: отсутствуют

Режиссер: Донато Карризи

rating

В ролях: Дастин Хоффман, Тони Сервилло, Валентина Белле, Виничио Маркиони, Кацярына Шульга, Орландо Синк, Филиппо Дини, Серджо Гроссини, Карла Кассола, Луис Ньекко

Описание: Саманта просыпается со сломанной ногой в комнате без окон. Она дезориентирована и ничего не помнит. Криминальный психолог доктор Грин объясняет испуганной девушке, что её похитили 15 лет назад. Каким-то чудом Саманте удалось бежать, и теперь психологу нужно проникнуть в её разум, чтобы найти похитителя. Помимо Грина, случаем Саманты занимается частный детектив Бруно Генко, для которого поиски похитителя - таинственного человека в маске - должны стать последним делом жизни. Попытка разгадать тайну Саманты превращается в гонку в лабиринте, где каждая подсказка может стать ловушкой, а за каждой дверью может таиться смерть.

Качество: WEB-DL 1080p
Формат: MKV

Видео: H.264, 4600 Kb/s, 1920x804, 24.000 fps
Аудио: Russian: 48 kHz, AC3, 384 Kb/s, 6 ch
скриншот  скриншот  скриншот  скриншот  

Complete name : D:Devushka.v.labirinte.2019.WEB-DL.1080.ELEKTRI4KA.UNIONGANG.mkv
Format : Matroska
Format version : Version 4 / Version 2
File size : 4.54 GiB
Duration : 2 h 10 min
Overall bit rate : 4 986 kb/s
Movie name : ELEKTRI4KA.UNIONGANG
Encoded date : UTC 2020-03-04 19:14:38
Writing application : mkvmerge v8.3.0 ('Over the Horizon') 64bit
Writing library : libebml v1.3.1 + libmatroska v1.4.2

Video
ID : 1
Format : AVC
Format/Info : Advanced Video Codec
Format profile : High@L4
Format settings, CABAC : Yes
Format settings, Reference frames : 5 frames
Codec ID : V_MPEG4/ISO/AVC
Duration : 2 h 10 min
Bit rate : 4 600 kb/s
Width : 1 920 pixels
Height : 804 pixels
Display aspect ratio : 2.40:1
Frame rate mode : Constant
Frame rate : 24.000 FPS
Color space : YUV
Chroma subsampling : 4:2:0
Bit depth : 8 bits
Scan type : Progressive
Bits/(Pixel*Frame) : 0.124
Stream size : 4.18 GiB (92%)
Language : English
Default : Yes
Forced : No
Color range : Limited
Color primaries : BT.709
Transfer characteristics : BT.709
Matrix coefficients : BT.709

Audio
ID : 2
Format : AC-3
Format/Info : Audio Coding 3
Mode extension : CM (complete main)
Format settings, Endianness : Big
Codec ID : A_AC3
Duration : 2 h 10 min
Bit rate mode : Constant
Bit rate : 384 kb/s
Channel(s) : 6 channels
Channel positions : Front: L C R, Side: L R, LFE
Sampling rate : 48.0 kHz
Frame rate : 31.250 FPS (1536 spf)
Bit depth : 16 bits
Compression mode : Lossy
Stream size : 358 MiB (8%)
Title : iTunes
Language : Russian
Default : Yes
Forced : No

Menu
00:00:00.000 : en:Глава 1
00:08:29.041 : en:Глава 2
00:16:45.290 : en:Глава 3
00:25:11.330 : en:Глава 4
00:33:51.205 : en:Глава 5
00:42:14.496 : en:Глава 6
00:50:56.371 : en:Глава 7
00:58:58.287 : en:Глава 8
01:07:34.995 : en:Глава 9
01:16:30.411 : en:Глава 10
01:24:47.243 : en:Глава 11
01:33:50.784 : en:Глава 12
01:42:16.784 : en:Глава 13
01:50:27.075 : en:Глава 14
01:59:46.825 : en:Глава 15
pb.wtf



Скачать Девушка в лабиринте через торрент https://d.radikal.ru/d43/2003/57/6cb5354574db.jpg Скачать фильм Девушка в лабиринте через торрент бесплантно в хорошем качестве Описание: Саманта просыпается со сломанной ногой в комнате без окон. Она дезориентирована и ничего не помнит. Криминальный психолог доктор ... 10 10 12
Торрент: Зарегистрирован [2020-03-04 19:29] · скачан: 252 раз
Статус: √ проверено
Размер: 4.54 GB
Как cкачать? Как скачать Девушка в лабиринте через торрент | qTorrent

28-11-2019 20:33  

Отключить всю рекламу на сайте

    Дорогой пользователь! Огромная просьба, поблагодарите релизера, оцените раздачу и оставьте свои комментарий, если Вы скачали Девушка в лабиринте через торрент бесплатно! Внесите свою лепту в развитие PiratBit!
    Комментировать посты могут только пользователи прошедшие не сложную регистрацию
    Показать сообщения:    

    Девушка в лабиринте через торрент
    Скачать бесплатно Девушка в лабиринте
    Девушка в лабиринте скачать торрент
    Девушка в лабиринте смотреть онлайн
    Cкачать фильм Девушка в лабиринте бесплатно
    Девушка в лабиринте скачать торрент в хорошем качестве
    Девушка в лабиринте смотреть онлайн бесплатно в хорошем качестве


    Вы не можете начинать темы
    Вы не можете отвечать на сообщения
    Вы не можете редактировать свои сообщения
    Вы не можете удалять свои сообщения
    Вы не можете голосовать в опросах
    Вы не можете прикреплять файлы к сообщениям
    Вы можете скачивать файлы