Ссылка на приватное зеркало нашего сайта всего за 1$. Внимание количество ограничено!!!

2 сезон

iTunes

1 сезон

1

2 сезон

2 сезон

iTunes

1 сезон

RePack

30

Ultimate

ВАЖНО

ИГРА 18+

pack

RePack

MK11
pack

Забери бонус

RePack

jed

!!Акция!!

Alien_Rage

RePack

fifa19

RePack

Assassins Creed: Odyssey

RePack

NEED FOR SPEED™ PAYBACK

4 сезон

9 сезон

Бесстыжие 9 сезон

Все сериалы

все сериалы на PB.wtf

RePack

FAR CRY 5
  

Подлинная история банды Келли / True History of the Kelly Gang (Джастин Курзель) [2019, драма, криминал, вестерн, биография, WEB-DL 1080p] DUB (rus, ukr) [iTunes] pb.wtf

Подлинная история банды Келли через торрент pb.wtf

Раздают: 4 [ 0 KB/s ]
Размер: 4.22 GB | Добавлен: 7 мес. назад | Торрент скачан:538 раз
Скачать  

01-03-2020 18:58 Подлинная история банды Келли Скачать торрент  

Подлинная история банды Келли | True History of the Kelly Gang
Год выпуска: 2019
Страна: Австралия, Великобритания, Франция
Студия: Porchlight Films, Daybreak Pictures, Film Victoria
Жанр: драма, криминал, вестерн, биография
Продолжительность: 02:05:08
Перевод: Дублированный | iTunes
Субтитры: Русские (Full), английские

Режиссер: Джастин Курзель

rating

В ролях: Джордж Маккэй, Рассел Кроу, Николас Холт, Эсси Дэвис, Джейкоб Коллинс-Леви, Шон Кинэн, Томасин МакКензи, Чарли Ханнэм, Клаудия Карван, Марлон Уильямс

Описание: От одного упоминания имени Неда Келли дрожала вся полиция. О его дерзких ограблениях банков слагали легенды, а за его голову была назначена огромная награда. Он один из самых противоречивых персонажей мировой криминальной истории, которого многие считают благородным разбойником и реальным Робином Гудом.

Качество: WEB-DL 1080p
Формат: MKV

Видео: MPEG-4 AVC, 1920x1080, 3867 Kbit/s, 24.000 fps
Аудио #01: 48 kHz, AC3, 5.1, 384 Kbps | Дублированный | RUS |
Аудио #02: 48 kHz, AAC, 2.0, 124 Kbps | Дублированный | UKR |
Аудио #03: 48 kHz, E-AC3, 5.1, 448 Kbps | Оригинал | ENG |
скриншот  скриншот  скриншот  скриншот  скриншот  

General
Unique ID : 295066666879238138171287172119988876647 (0xDDFBC5DEF55C5DAE692981AB21613567)
Complete name : E:Video111True.History.of.the.Kelly.Gang.2019.WEB-DL.1080p.seleZen.mkv
Format : Matroska
Format version : Version 4
File size : 4.22 GiB
Duration : 2 h 5 min
Overall bit rate : 4 825 kb/s
Movie name : True History of the Kelly Gang 2019 from селезень
Encoded date : UTC 2020-04-24 00:46:50
Writing application : mkvmerge v40.0.0 ('Old Town Road + Pony') 64-bit
Writing library : libebml v1.3.9 + libmatroska v1.5.2

Video
ID : 1
Format : AVC
Format/Info : Advanced Video Codec
Format profile : High@L4
Format settings : CABAC / 4 Ref Frames
Format settings, CABAC : Yes
Format settings, Reference : 4 frames
Codec ID : V_MPEG4/ISO/AVC
Duration : 2 h 5 min
Bit rate : 3 867 kb/s
Width : 1 920 pixels
Height : 1 080 pixels
Display aspect ratio : 16:9
Frame rate mode : Constant
Frame rate : 24.000 FPS
Color space : YUV
Chroma subsampling : 4:2:0
Bit depth : 8 bits
Scan type : Progressive
Bits/(Pixel*Frame) : 0.078
Stream size : 3.38 GiB (80%)
Language : English
Default : Yes
Forced : No
Color range : Limited
Color primaries : BT.709
Transfer characteristics : BT.709
Matrix coefficients : BT.709

Audio #1
ID : 2
Format : AC-3
Format/Info : Audio Coding 3
Commercial name : Dolby Digital
Codec ID : A_AC3
Duration : 2 h 5 min
Bit rate mode : Constant
Bit rate : 384 kb/s
Channel(s) : 6 channels
Channel layout : L R C LFE Ls Rs
Sampling rate : 48.0 kHz
Frame rate : 31.250 FPS (1536 SPF)
Compression mode : Lossy
Stream size : 344 MiB (8%)
Title : iTunes
Language : Russian
Service kind : Complete Main
Default : Yes
Forced : Yes

Audio #2
ID : 3
Format : AAC LC
Format/Info : Advanced Audio Codec Low Complexity
Codec ID : A_AAC-2
Duration : 2 h 5 min
Bit rate : 124 kb/s
Channel(s) : 2 channels
Channel layout : L R
Sampling rate : 44.1 kHz
Frame rate : 43.066 FPS (1024 SPF)
Compression mode : Lossy
Stream size : 111 MiB (3%)
Title : iTunes
Language : Ukrainian
Default : No
Forced : No

Audio #3
ID : 4
Format : E-AC-3
Format/Info : Enhanced AC-3
Commercial name : Dolby Digital Plus
Codec ID : A_EAC3
Duration : 2 h 5 min
Bit rate mode : Constant
Bit rate : 448 kb/s
Channel(s) : 6 channels
Channel layout : L R C LFE Ls Rs
Sampling rate : 48.0 kHz
Frame rate : 31.250 FPS (1536 SPF)
Compression mode : Lossy
Stream size : 401 MiB (9%)
Title : Original
Language : English
Service kind : Complete Main
Default : No
Forced : No

Text #1
ID : 5
Format : UTF-8
Codec ID : S_TEXT/UTF8
Codec ID/Info : UTF-8 Plain Text
Duration : 1 h 58 min
Bit rate : 87 b/s
Count of elements : 1400
Stream size : 76.5 KiB (0%)
Title : Full
Language : Russian
Default : No
Forced : No

Text #2
ID : 6
Format : UTF-8
Codec ID : S_TEXT/UTF8
Codec ID/Info : UTF-8 Plain Text
Duration : 1 h 57 min
Bit rate : 54 b/s
Count of elements : 1562
Stream size : 46.8 KiB (0%)
Title : Full
Language : English
Default : No
Forced : No

pb.wtf



Скачать Подлинная история банды Келли через торрент https://i111.fastpic.ru/big/2020/0424/19/998e9f02b54ea91abb707537fc670319.jpg Скачать фильм Подлинная история банды Келли через торрент бесплантно в хорошем качестве Описание: От одного упоминания имени Неда Келли дрожала вся полиция. О его дерзких ограблениях банков слагали легенды, а за его голову была ... 8.8 10 23
Торрент: Зарегистрирован [2020-04-24 06:06] · скачан: 538 раз
Статус: √ проверено
Размер: 4.22 GB
Как cкачать? Как скачать Подлинная история банды Келли через торрент | qTorrent

% Раздел Тема Автор DL S | L
Фильмы 2019-2020 [DVDrip, WEB-DLRip, HDrip] (DUB, MVO) [ 747 MB ] Подлинная история банды Келли / True History of the Kelly Gang [2019 биография HDRip] bober100 Скачать
2 | 0
Фильмы 2019-2020 [DVDrip, WEB-DLRip, HDrip] (DUB, MVO) [ 745 MB ] Подлинная история банды Келли / True History of the Kelly Gang [2019 биография BDRip-AVC] от wolf1245 & MediaBit Lithuania Скачать
2 | 0
Фильмы [HD 720p, 1080p] (Хороший звук DUB, MVO) [ 7.35 GB ] Подлинная история банды Келли / True History of the Kelly Gang [2019 биография BDRip 720p] DUB bober100 Скачать
2 | 0
Фильмы [HD 720p, 1080p] (Хороший звук DUB, MVO) [ 14.28 GB ] Подлинная история банды Келли / True History of the Kelly Gang [2019 биография BDRip 1080p] DUB bober100 Скачать
1 | 0
Фильмы (Blu-ray, BD-Remux, HDDVD) [ 31.05 GB ] Подлинная история банды Келли / True History of the Kelly Gang [2019 биография BD Remux 1080p] DUB bober100 Скачать
2 | 0
Фильмы 2019-2020 [DVDrip, WEB-DLRip, HDrip] (DUB, MVO) [ 2.17 GB ] Подлинная история банды Келли / True History of the Kelly Gang [2019 биография WEB-DLRip-AVC] bober100 Скачать
5 | 0
Фильмы (WEB-DL 720p, 1080p) [ 4.39 GB ] Подлинная история банды Келли / True History of the Kelly Gang [2019 биография WEB-DL 720p] bober100 Скачать
4 | 0


Последний раз редактировалось: bober100 (2020-04-24 06:06), всего редактировалось 1 раз

28-11-2019 20:33  

Отключить всю рекламу на сайте

    Дорогой пользователь! Огромная просьба, поблагодарите релизера, оцените раздачу и оставьте свои комментарий, если Вы скачали Подлинная история банды Келли через торрент бесплатно! Внесите свою лепту в развитие PiratBit!
    Комментировать посты могут только пользователи прошедшие не сложную регистрацию
    Показать сообщения:    

    Подлинная история банды Келли через торрент
    Скачать бесплатно Подлинная история банды Келли
    Подлинная история банды Келли скачать торрент
    Подлинная история банды Келли смотреть онлайн
    Cкачать фильм Подлинная история банды Келли бесплатно
    Подлинная история банды Келли скачать торрент в хорошем качестве
    Подлинная история банды Келли смотреть онлайн бесплатно в хорошем качестве


    Вы не можете начинать темы
    Вы не можете отвечать на сообщения
    Вы не можете редактировать свои сообщения
    Вы не можете удалять свои сообщения
    Вы не можете голосовать в опросах
    Вы не можете прикреплять файлы к сообщениям
    Вы можете скачивать файлы