Всегда рабочее зеркало без VPN и Proxy просто перед .vidak.icu напиши любое слово или цифру, Пример http://ej86.vidak.icu

MVO

2 сезон

2 сезон

1

1 сезон

iTunes

2 сезон

13

1 сезон

Deluxe

pack

Рекомендуем

Пиратка

30

ВАЖНО

RePack

MK11

RePack

jed

RePack

fifa19

RePack

RDR2

RePack

NEED FOR SPEED™ PAYBACK

Кинопоиск HD

6 сезон

 Острые козырьки 6 сезон

Все сериалы

все сериалы на PB.wtf

RePack

FAR CRY 5

Anonymous, нам критически не хватает 5601 руб. на оплату серверов и переферии за Апрель, помоги нам пожалуйста, вся надежда только на тебя. В благодарность мы отключим тебе всю рекламу на сайте!

×
  
Magnet ссылка

Джанго освобожденный / Django Unchained (Квентин Тарантино) [2012, вестерн, боевик, драма, комедия, BDRip-HEVC 1080p, (10 bit)] DUB (rus, ukr) [Лицензия] pb.wtf

Джанго освобожденный через торрент pb.wtf

Размер: 10.97 GB | Добавлен: 2 года 2 мес. назад | Торрент скачан:164 раза
Смотреть онлайн Джанго освобожденный | Скачать    Ребята, помогите собрать деньги на оплату серверов!!!

02-03-2020 06:31 Джанго освобожденный Скачать торрент  

Джанго освобожденный | Django Unchained
Год выпуска: 2012
Страна: США
Жанр: вестерн, боевик, драма, комедия
Продолжительность: 02:45:23
Перевод: Дублированный | Лицензия
Субтитры: Русские (форсированные, полные), украинские (форсированные), английские (полные, SDH-Colored)

Режиссер: Квентин Тарантино

rating

В ролях: Джейми Фокс, Кристоф Вальц, Леонардо ДиКаприо, Керри Вашингтон, Сэмюэл Л. Джексон, Уолтон Гоггинс, Деннис Кристофер, Джеймс Римар, Дон Джонсон, Франко Неро

Описание: Эксцентричный охотник за головами, также известный как Дантист, промышляет отстрелом самых опасных преступников. Работенка пыльная, и без надежного помощника ему не обойтись. Но как найти такого и желательно не очень дорогого? Освобождённый им раб по имени Джанго — прекрасная кандидатура. Правда, у нового помощника свои мотивы — кое с чем надо сперва разобраться.

Качество: BDRip-HEVC 1080p
Формат: MKV

Видео: HEVC/H.265, 1920x800, ~7575 Kbps, 10 bit
Аудио#1: AC3, 6 ch, 640 Kbps - Русский, дублированный
Аудио#2: AC3, 6 ch, 640 Kbps - Украинский, дублированный
Аудио#3: AC3, 6 ch, 640 Kbps - Английский
скриншот  скриншот  скриншот  скриншот  

Общее
Уникальный идентификатор : 184356757583782709798986310958361071233 (0x8AB1D1EABD0B69835042594A0807CE81)
Полное имя : R:Django Unchained (2012) BDRip 1080p [HEVC].mkv
Формат : Matroska
Версия формата : Version 4 / Version 2
Размер файла : 11,0 Гбайт
Продолжительность : 2 ч. 45 м.
Общий поток : 9498 Кбит/сек
Название фильма : Django Unchained (2012)
Дата кодирования : UTC 2020-03-01 10:36:54
Программа кодирования : mkvmerge v43.0.0 ('The Quartermaster') 64-bit
Библиотека кодирования : libebml v1.3.10 + libmatroska v1.5.2
Обложка : Yes
Attachments : cover.jpg

Видео
Идентификатор : 1
Формат : HEVC
Формат/Информация : High Efficiency Video Coding
Профиль формата : Main 10@L4.1@High
Идентификатор кодека : V_MPEGH/ISO/HEVC
Продолжительность : 2 ч. 45 м.
Битрейт : 7575 Кбит/сек
Ширина : 1920 пикселей
Высота : 800 пикселей
Соотношение сторон : 2,40:1
Режим частоты кадров : Постоянный
Частота кадров : 23,976 (23976/1000) кадра/сек
Частота кадров в оригинале : 23,976 (24000/1001) кадра/сек
Цветовое пространство : YUV
Субдискретизация насыщенности : 4:2:0
Битовая глубина : 10 бит
Бит/(Пиксели*Кадры) : 0.206
Размер потока : 8,75 Гбайт (80%)
Библиотека кодирования : x265 3.2.1+1-b5c86a64bbbe:[Windows][MSVC 1923][64 bit] 10bit
Настройки программы : cpuid=1111039 / frame-threads=3 / numa-pools=12 / wpp / no-pmode / no-pme / no-psnr / no-ssim / log-level=2 / input-csp=1 / input-res=1920x800 / interlace=0 / total-frames=237912 / level-idc=41 / high-tier=1 / uhd-bd=0 / ref=5 / no-allow-non-conformance / no-repeat-headers / annexb / no-aud / no-hrd / info / hash=0 / no-temporal-layers / open-gop / min-keyint=23 / keyint=240 / gop-lookahead=0 / bframes=12 / b-adapt=2 / b-pyramid / bframe-bias=0 / rc-lookahead=60 / lookahead-slices=4 / scenecut=40 / radl=0 / no-splice / no-intra-refresh / ctu=32 / min-cu-size=8 / rect / amp / max-tu-size=32 / tu-inter-depth=4 / tu-intra-depth=4 / limit-tu=1 / rdoq-level=2 / dynamic-rd=0.00 / no-ssim-rd / signhide / no-tskip / nr-intra=0 / nr-inter=0 / no-constrained-intra / no-strong-intra-smoothing / max-merge=4 / limit-refs=2 / limit-modes / me=3 / subme=7 / merange=57 / temporal-mvp / no-hme / weightp / weightb / no-analyze-src-pics / deblock=-3:-3 / no-sao / no-sao-non-deblock / rd=6 / selective-sao=0 / no-early-skip / no-rskip / no-fast-intra / no-tskip-fast / no-cu-lossless / no-b-intra / no-splitrd-skip / rdpenalty=0 / psy-rd=2.00 / psy-rdoq=1.00 / no-rd-refine / no-lossless / cbqpoffs=0 / crqpoffs=0 / rc=crf / crf=20.0 / qcomp=0.65 / qpstep=4 / stats-write=0 / stats-read=0 / vbv-maxrate=50000 / vbv-bufsize=50000 / vbv-init=0.9 / crf-max=0.0 / crf-min=0.0 / ipratio=1.40 / pbratio=1.30 / aq-mode=1 / aq-strength=1.00 / no-cutree / zone-count=0 / no-strict-cbr / qg-size=32 / no-rc-grain / qpmax=69 / qpmin=0 / no-const-vbv / sar=1 / overscan=0 / videoformat=5 / range=0 / colorprim=1 / transfer=1 / colormatrix=1 / chromaloc=0 / display-window=0 / cll=0,0 / min-luma=0 / max-luma=1023 / log2-max-poc-lsb=8 / vui-timing-info / vui-hrd-info / slices=1 / no-opt-qp-pps / no-opt-ref-list-length-pps / no-multi-pass-opt-rps / scenecut-bias=0.05 / no-opt-cu-delta-qp / no-aq-motion / no-hdr / no-hdr-opt / no-dhdr10-opt / no-idr-recovery-sei / analysis-reuse-level=5 / scale-factor=0 / refine-intra=0 / refine-inter=0 / refine-mv=1 / refine-ctu-distortion=0 / no-limit-sao / ctu-info=0 / no-lowpass-dct / refine-analysis-type=0 / copy-pic=1 / max-ausize-factor=1.0 / no-dynamic-refine / no-single-sei / no-hevc-aq / no-svt / no-field / qp-adaptation-range=1.00
Default : Да
Forced : Нет
Цветовой диапазон : Limited
Основные цвета : BT.709
Характеристики трансфера : BT.709
Коэффициенты матрицы : BT.709

Аудио #1
Идентификатор : 2
Формат : AC-3
Формат/Информация : Audio Coding 3
Идентификатор кодека : A_AC3
Продолжительность : 2 ч. 45 м.
Вид битрейта : Постоянный
Битрейт : 640 Кбит/сек
Каналы : 6 каналов
Расположение каналов : Front: L C R, Side: L R, LFE
Частота : 48,0 КГц
Частота кадров : 31,250 кадров/сек (1536 SPF)
Битовая глубина : 16 бит
Метод сжатия : С потерями
Размер потока : 757 Мбайт (7%)
Заголовок : Dub
Язык : Russian
ServiceKind/Strin : Complete Main
Default : Да
Forced : Нет

Аудио #2
Идентификатор : 3
Формат : AC-3
Формат/Информация : Audio Coding 3
Идентификатор кодека : A_AC3
Продолжительность : 2 ч. 45 м.
Вид битрейта : Постоянный
Битрейт : 640 Кбит/сек
Каналы : 6 каналов
Расположение каналов : Front: L C R, Side: L R, LFE
Частота : 48,0 КГц
Частота кадров : 31,250 кадров/сек (1536 SPF)
Битовая глубина : 16 бит
Метод сжатия : С потерями
Размер потока : 757 Мбайт (7%)
Заголовок : Dub
Язык : Ukrainian
ServiceKind/Strin : Complete Main
Default : Нет
Forced : Нет

Аудио #3
Идентификатор : 4
Формат : AC-3
Формат/Информация : Audio Coding 3
Идентификатор кодека : A_AC3
Продолжительность : 2 ч. 45 м.
Вид битрейта : Постоянный
Битрейт : 640 Кбит/сек
Каналы : 6 каналов
Расположение каналов : Front: L C R, Side: L R, LFE
Частота : 48,0 КГц
Частота кадров : 31,250 кадров/сек (1536 SPF)
Битовая глубина : 16 бит
Метод сжатия : С потерями
Размер потока : 757 Мбайт (7%)
Заголовок : Original
Язык : English
ServiceKind/Strin : Complete Main
Default : Нет
Forced : Нет

Текст #1
Идентификатор : 5
Формат : UTF-8
Идентификатор кодека : S_TEXT/UTF8
Идентификатор кодека/Информация : UTF-8 Plain Text
Продолжительность : 2 ч. 21 м.
Битрейт : 1 бит/сек
ElementCount : 35
Размер потока : 1,78 Кбайт (0%)
Заголовок : Forced
Язык : Russian
Default : Да
Forced : Нет

Текст #2
Идентификатор : 6
Формат : UTF-8
Идентификатор кодека : S_TEXT/UTF8
Идентификатор кодека/Информация : UTF-8 Plain Text
Продолжительность : 2 ч. 44 м.
Битрейт : 92 бит/сек
ElementCount : 1952
Размер потока : 111 Кбайт (0%)
Заголовок : Full
Язык : Russian
Default : Нет
Forced : Нет

Текст #3
Идентификатор : 7
Формат : UTF-8
Идентификатор кодека : S_TEXT/UTF8
Идентификатор кодека/Информация : UTF-8 Plain Text
Продолжительность : 3 м. 8 с.
Битрейт : 50 бит/сек
ElementCount : 25
Размер потока : 1,17 Кбайт (0%)
Заголовок : Forced
Язык : Ukrainian
Default : Нет
Forced : Нет

Текст #4
Идентификатор : 8
Формат : UTF-8
Идентификатор кодека : S_TEXT/UTF8
Идентификатор кодека/Информация : UTF-8 Plain Text
Продолжительность : 2 ч. 41 м.
Битрейт : 57 бит/сек
ElementCount : 1885
Размер потока : 68,3 Кбайт (0%)
Заголовок : Full
Язык : English
Default : Нет
Forced : Нет

Текст #5
Идентификатор : 9
Формат : UTF-8
Идентификатор кодека : S_TEXT/UTF8
Идентификатор кодека/Информация : UTF-8 Plain Text
Продолжительность : 2 ч. 44 м.
Битрейт : 71 бит/сек
ElementCount : 2095
Размер потока : 86,5 Кбайт (0%)
Заголовок : SDH-Colored
Язык : English
Default : Нет
Forced : Нет

Меню
00:00:00.000 : en:Django Unchained
00:03:36.466 : en:1858 - Somewhere in Texas
00:12:47.933 : en:Daughtrey, TX
00:18:49.419 : en:Sheriff Bill Sharp
00:26:48.273 : en:Tennessee
00:31:44.527 : en:"You mean you wanna dress like that?"
00:40:27.133 : en:It's a Raid
00:46:05.512 : en:The Legend of Broomhilda
00:52:36.862 : en:Smitty Bacall
00:58:12.822 : en:Mississippi
01:02:20.319 : en:One-Eyed Charlie
01:12:13.495 : en:The Ride to Candieland
01:18:35.794 : en:The Trackers
01:26:08.037 : en:Candieland
01:34:49.642 : en:Dr. Schultz Meets Broomhilda
01:40:52.379 : en:"You know what I like."
01:45:34.036 : en:Eskimo Joe
01:50:01.094 : en:"You scarin' me."
01:55:03.980 : en:Old Ben
02:03:54.969 : en:"Please stop playing Beethoven."
02:08:14.103 : en:"Broomhilda Von Shaft, consider yourself a free woman."
02:14:14.379 : en:"Django, we got your woman."
02:17:28.990 : en:Castration Scene
02:22:32.544 : en:Lequint Dickey Mining Company
02:26:28.529 : en:"He weren't no slave."
02:33:00.462 : en:Django Says Goodbye to Dr. Schultz
02:35:41.999 : en:"In the sweet by and by."
02:41:30.931 : en:"They will call you the fastest gun in the south."

pb.wtf



Скачать Джанго освобожденный через торрент http://lostpic.net/images/0f472ce5289065f9d9a8a7e22ab85625.jpg Скачать, смотреть онлайн Джанго освобожденный бесплантно в хорошем качестве Описание: Эксцентричный охотник за головами, также известный как Дантист, промышляет отстрелом самых опасных преступников. Работенка ... 10 10 6
Торрент: Зарегистрирован [2020-03-02 06:31] · скачан: 164 раз
Статус: √ проверено
Размер: 10.97 GB
Как cкачать? Как скачать Джанго освобожденный через торрент | UTorrent

% Раздел Тема Автор DL S | L
Фильмы (HD 720p, 1080p) (48-60 fps) [ 5.38 GB ] Джанго освобожденный / Django Unchained [2012 BDRip - HEVC 1080p 10bit 60 FPS ] dd2d3 Скачать
1 | 0
Фильмы с авторской озвучкой [ 4.67 GB ] Джанго освобожденный / Django Unchained [2012 BDRip 1080p] 2x [AVO] killermax2013 Скачать
1 | 0
Фильмы (BDRip, HDrip-AVC) (48-60 fps) [ 3.95 GB ] Джанго освобожденный / Django Unchained [2012 BDRip-AVC 60fps Dub] от R.G. HD-Films Tiberiumsun69 Скачать
8 | 0
Фильмы с авторской озвучкой [ 4.19 GB ] Джанго освобожденный / Django Unchained [2012 HDRip] 5x[AVO] killermax2013 Скачать
1 | 0
Фильмы 2012 [ 1.46 GB ] Джанго освобожденный / Django Unchained [2012 HDRip лицензия] Seedtank Скачать
1 | 0
Фильмы с авторской озвучкой [ 2.18 GB ] Джанго освобожденный / Django Unchained [2012 BDRip] [AVO] killermax2013 Скачать
1 | 0
Фильмы (Blu-ray, BD-Remux, HDDVD) [ 102.08 GB ] Джанго освобожденный / Django Unchained [2012 BDRemux] [1080p]+7x[AVO]+8x[VO] + [Sub ruseng] killermax2013 Скачать
1 | 0

28-11-2019 20:33  

Отключить всю рекламу на сайте

    Дорогой пользователь! Огромная просьба, поблагодарите релизера, оцените раздачу и оставьте свои комментарий, если Вы скачали Джанго освобожденный через торрент бесплатно!
    Комментировать посты могут только пользователи прошедшие не сложную регистрацию
    Показать сообщения:    

    Джанго освобожденный через торрент
    Скачать бесплатно Джанго освобожденный
    Джанго освобожденный скачать торрент
    Джанго освобожденный смотреть онлайн
    Cкачать фильм Джанго освобожденный бесплатно
    Джанго освобожденный скачать торрент в хорошем качестве
    Джанго освобожденный смотреть онлайн бесплатно в хорошем качестве


    Вы не можете начинать темы
    Вы не можете отвечать на сообщения
    Вы не можете редактировать свои сообщения
    Вы не можете удалять свои сообщения
    Вы не можете голосовать в опросах
    Вы не можете прикреплять файлы к сообщениям
    Вы можете скачивать файлы