Ссылка на приватное зеркало всего за 1$. Внимание количество ограничено!!!

iTunes

1+1

iTunes

мы

iTunes

1

WEB-DLRip

Джокер

Пифагор

Ведьмак / The Witcher сериал

iTunes

ПШазам

iTunes

Оно 2

iTunes

30
pack

Новость дня

ВАЖНО

!!Акция!!

Alien_RageХит недели

RePack

Resident Evil 21

ИГРА 18+

pack

RePack

jed

!!Акция!!

Alien_Rage

RePack

fifa19

RePack

Assassins Creed: Odyssey

RePack

NEED FOR SPEED™ PAYBACK

4 сезон

9 сезон

Бесстыжие 9 сезон

Все сериалы

все сериалы на PB.wtf

RePack

FAR CRY 5
  

Контузия / Combat Shock (Бадди Джовинаццо) [1984, драма, военный, ужасы, BDRip 1080p by msltel] VO pb.wtf

Контузия через торрент pb.wtf

Раздают: 1 [ 0 KB/s ]
Размер: 10.07 GB | Добавлен: 28 д. назад | Торрент скачан:3 раза
Скачать  

02-03-2020 08:20 Контузия Скачать торрент  

Название: Контузия
Оригинальное название: Combat Shock
Год выпуска: 1984
Страна: США
Жанр: драма, военный, ужасы
Продолжительность: 01:36:48
Перевод: любительский одноголосый
Режиссер: Бадди Джовинаццо
В ролях: Рик Джовинаццо, Вероника Сторк, Майкл Тьерно, Артур Саундерс, Лори Лабар, Джим Куни, Рэй Пинеро

О фильме: Фрэнк — ветеран войны во Вьетнаме. Побывав в плену и частично утратив рассудок, он возвращается в родной город. Здесь, в мрачных трущобах, кишащих безжалостными бандитами и наркоманами, готовыми на всё ради порции зелья, Фрэнк влачит тягостные будни, всеми забытый и никому не нужный. Каждый день он вынужден скитаться по улицам в поисках работы и выбивая пособия, чтобы хоть как-то содержать себя и свою семью. День за днём он слышит упрёки сварливой толстухи-жены и плач недоразвитого ребёнка-мутанта. Находясь в этом пограничном состоянии между чистилищем и адом, жизнью и чисто физическим существованием, Фрэнк всё больше погружается в тёмную пучину собственного безумия и в один прекрасный день обнаруживает в своей руке заряженый револьвер... (King Diamond, Кинопоиск)



Качество: BDRip 1080p
Формат: MKV
Видео: MPEG-4 AVC, 13.2 Mбит/с, 1436x1080
Аудио 1: русский, AC3, 192 kbps, 2 ch, 48 kHz [закадровый одноголосый, Overfiend]
Аудио 2: английский, DTS, 1509 kbps, 2 ch, 48 kHz [оригинал]
Субтитры: английские
Главы/чаптеры
Общее
Уникальный идентификатор : 209760331098614683095392368142842681739 (0x9DCE5ECAB7F5FE7D84ABBD35084D598B)
Полное имя : D:\Video\Контузия.1984.BDRip 1080p by msltel.mkv
Формат : Matroska
Версия формата : Version 4
Размер файла : 10,1 Гбайт
Продолжительность : 1 ч. 36 м.
Общий поток : 14,9 Мбит/сек
Название фильма : Rip by msltel
Дата кодирования : UTC 2020-03-02 07:18:32
Программа кодирования : mkvmerge v8.2.0 ('World of Adventure') 64bit
Библиотека кодирования : libebml v1.3.1 + libmatroska v1.4.2

Видео
Идентификатор : 1
Формат : AVC
Формат/Информация : Advanced Video Codec
Профиль формата : High@L4.1
Настройки формата : CABAC / 5 Ref Frames
Параметр CABAC формата : Да
Параметр RefFrames формата : 5 кадров
Идентификатор кодека : V_MPEG4/ISO/AVC
Продолжительность : 1 ч. 36 м.
Битрейт : 13,2 Мбит/сек
Ширина : 1436 пикселей
Высота : 1080 пикселей
Соотношение сторон : 4:3
Режим частоты кадров : Постоянный
Частота кадров : 23,976 (24000/1001) кадра/сек
Цветовое пространство : YUV
Субдискретизация насыщенности : 4:2:0
Битовая глубина : 8 бит
Тип развёртки : Прогрессивная
Бит/(Пиксели*Кадры) : 0.355
Размер потока : 8,92 Гбайт (89%)
Библиотека кодирования : x264 core 157 r2969 d4099dd
Настройки программы : cabac=1 / ref=5 / deblock=1:-2:-2 / analyse=0x3:0x113 / me=umh / subme=11 / psy=1 / psy_rd=1.00:0.15 / mixed_ref=1 / me_range=32 / chroma_me=1 / trellis=2 / 8x8dct=1 / cqm=0 / deadzone=21,11 / fast_pskip=0 / chroma_qp_offset=-3 / threads=6 / lookahead_threads=1 / sliced_threads=0 / nr=0 / decimate=1 / interlaced=0 / bluray_compat=0 / constrained_intra=0 / bframes=14 / b_pyramid=2 / b_adapt=2 / b_bias=0 / direct=1 / weightb=1 / open_gop=0 / weightp=2 / keyint=230 / keyint_min=23 / scenecut=40 / intra_refresh=0 / rc_lookahead=40 / rc=crf / mbtree=1 / crf=20.4 / qcomp=0.60 / qpmin=0 / qpmax=69 / qpstep=4 / vbv_maxrate=50000 / vbv_bufsize=62500 / crf_max=0.0 / nal_hrd=none / filler=0 / ip_ratio=1.40 / aq=1:1.00
Язык : English
Default : Да
Forced : Нет

Аудио #1
Идентификатор : 2
Формат : AC-3
Формат/Информация : Audio Coding 3
Коммерческое название : Dolby Digital
Идентификатор кодека : A_AC3
Продолжительность : 1 ч. 36 м.
Вид битрейта : Постоянный
Битрейт : 192 Кбит/сек
Каналы : 2 канала
ChannelLayout : L R
Частота : 48,0 КГц
Частота кадров : 31,250 кадров/сек (1536 SPF)
Метод сжатия : С потерями
Размер потока : 133 Мбайт (1%)
Заголовок : Overfiend
Язык : Russian
ServiceKind/String : Complete Main
Default : Да
Forced : Нет

Аудио #2
Идентификатор : 3
Формат : DTS
Формат/Информация : Digital Theater Systems
Идентификатор кодека : A_DTS
Продолжительность : 1 ч. 36 м.
Вид битрейта : Постоянный
Битрейт : 1509 Кбит/сек
Каналы : 2 канала
ChannelLayout : L R
Частота : 48,0 КГц
Частота кадров : 93,750 кадра/сек (512 SPF)
Битовая глубина : 16 бит
Метод сжатия : С потерями
Размер потока : 1,02 Гбайт (10%)
Заголовок : original
Язык : English
Default : Нет
Forced : Нет

Текст
Идентификатор : 4
Формат : UTF-8
Идентификатор кодека : S_TEXT/UTF8
Идентификатор кодека/Информация : UTF-8 Plain Text
Продолжительность : 1 ч. 35 м.
Битрейт : 44 бит/сек
ElementCount : 1191
Размер потока : 31,2 Кбайт (0%)
Заголовок : английские
Язык : English
Default : Нет
Forced : Нет

Меню
00:00:00.000 : en:Chapter 1
00:11:00.618 : en:Chapter 2
00:23:23.152 : en:Chapter 3
00:35:03.101 : en:Chapter 4
00:50:37.910 : en:Chapter 5
01:04:45.131 : en:Chapter 6
01:21:55.911 : en:Chapter 7
01:35:43.488 : en:Chapter 8
pb.wtf



Скачать Контузия через торрент https://i111.fastpic.ru/big/2020/0229/3b/75ead1e3100110b26428d50fb9b9723b.jpg Скачать фильм Контузия через торрент бесплантно в хорошем качестве О фильме: Фрэнк — ветеран войны во Вьетнаме. Побывав в плену и частично утратив рассудок, он возвращается в родной город. Здесь, в мрачных ... 7 10 4
Info! Золотая раздача, скачанное не засчитывается.
Торрент: Зарегистрирован [2020-03-02 08:20] · скачан: 3 раз
Статус: √ проверено
Размер: 10.07 GB
Как cкачать? Как скачать Контузия через торрент | qTorrent

% Раздел Тема Автор DL S | L
Фильмы до 2000 г. [ 2.18 GB ] Контузия / Combat Shock [1984 военный BDRip-AVC by msltel] VO msltel Скачать
2 | 0
Фильмы [HD 720p, 1080p] (Звук Cam, VO, DVO) [ 3.78 GB ] Контузия / Combat Shock [1984 военный BDRip 720p by msltel] VO msltel Скачать
3 | 0

28-11-2019 20:33  

Отключить всю рекламу на сайте

04-03-2020 14:52 Контузия Скачать торрент  

10 гигов фильм 1984 г. pb.wtf



30-03-2020 12:31 Контузия Скачать торрент  

трейлер конечно огонь! я сначала подумал, что это индийский фильм. походу реальный трешак))
"более экшн чем рембо, больше террора чем в терминаторе", еще че-то там про коммандо.


pb.wtf



    Дорогой пользователь! Огромная просьба, поблагодарите релизера, оцените раздачу и оставьте свои комментарий, если Вы скачали Контузия через торрент бесплатно! Внесите свою лепту в развитие PiratBit!
    Комментировать посты могут только пользователи прошедшие не сложную регистрацию
    Показать сообщения:    

    Контузия через торрент
    Скачать бесплатно Контузия
    Контузия скачать торрент
    Контузия смотреть онлайн
    Cкачать фильм Контузия бесплатно
    Контузия скачать торрент в хорошем качестве
    Контузия смотреть онлайн бесплатно в хорошем качестве


    Вы не можете начинать темы
    Вы не можете отвечать на сообщения
    Вы не можете редактировать свои сообщения
    Вы не можете удалять свои сообщения
    Вы не можете голосовать в опросах
    Вы не можете прикреплять файлы к сообщениям
    Вы можете скачивать файлы