Ссылка на приватное зеркало нашего сайта всего за 1$. Внимание количество ограничено!!!

2 сезон

iTunes

1 сезон

1

iTunes

iTunes

iTunes

1 сезон

RePack

30

ИГРА 18+

pack

ВАЖНО

!!Акция!!

Alien_RageХит недели

RePack

MK11
pack

Забери бонус

RePack

jed

!!Акция!!

Alien_Rage

RePack

fifa19

RePack

Assassins Creed: Odyssey

RePack

NEED FOR SPEED™ PAYBACK

4 сезон

9 сезон

Бесстыжие 9 сезон

Все сериалы

все сериалы на PB.wtf

RePack

FAR CRY 5
  

Короли палат / Сезон: 1 / Серии: 1-20 из 20 (Павел Потатуев) [2019, Комедия, WEB-DLRip-AVC] pb.wtf

Короли палат через торрент pb.wtf

Размер: 5.99 GB | Добавлен: 7 мес. назад | Торрент скачан:23 раза
Скачать  

02-03-2020 10:19 Короли палат Скачать торрент  

Короли палат Год выпуска: 2019
Страна: Украина
Жанр: Комедия
Продолжительность: ~ 00:24:00
Перевод: Не требуется
Субтитры: отсутствуют

Режиссер: Павел Потатуев

В ролях: Юрий Дяк, Владимир Ращук, Ольга Жуковцова-Кияшко, Дмитрий Савьяненко, Вячеслав Василюк, Татьяна Лавская

Описание: История двух братьев-врачей, пошедших разными путями. Пока интеллигент и семьянин Тарас трудится педиатром в бесплатной поликлинике, его брат-ловелас Егор строит карьеру в пластической хирургии. Владимир Ращук и Юрий Дяк в многосерийной украинской комедии «Короли палат». Трудно найти более непохожих братьев, чем неисправимый «отличник» Тарас, стремящийся жить по правилам, и самоуверенный весельчак Егор, ищущий от жизни простых удовольствий. Кроме родственных связей, братьев объединяет медицинское образование и общее место работы. На этом их видимые сходства заканчиваются. Человек долга Тарас выбрал для себя сложный путь: он терпеливо несет службу педиатра в государственной бюджетной поликлинике. Егору такие подвиги не по душе: в той же поликлинике он оказывает платные услуги, неплохо зарабатывая в качестве пластического хирурга. У него всегда находится время на простые удовольствия и развлечения, а прежде всего – на общение с красивыми женщинами. Так братья оказались на разных ступенях социальной лестницы, что, впрочем, не мешает им оставаться одной семьей.

Качество: WEB-DLRip-AVC
Формат: MKV

Видео: MPEG-4 AVC, ~ 1600 Кбит/с, 1024x576, 25 кадр/с
Аудио: 48 kHz, AC3, 2/0 (L,R) ch, ~192 kbps
скриншот  скриншот  скриншот  скриншот  скриншот  

General
Unique ID : 230262171260425488599276668150309554235 (0xAD3AE18DBD0CEB93BB19203538D9883B)
Complete name : F:\Короли палат.(2019).WEB-DLRip.(AVC).Files-x\01.Короли палат.(2019).WEB-DLRip.(AVC).by.Серый1779.Files-x.mkv
Format : Matroska
Format version : Version 2
File size : 314 MiB
Duration : 24 min 26 s
Overall bit rate : 1 793 kb/s
Encoded date : UTC 2020-03-01 20:56:24
Writing application : mkvmerge v7.8.0 ('River Man') 32bit built on Apr 3 2015 12:11:22
Writing library : libebml v1.3.1 + libmatroska v1.4.2

Video
ID : 1
Format : AVC
Format/Info : Advanced Video Codec
Format profile : High@L4.1
Format settings : CABAC / 9 Ref Frames
Format settings, CABAC : Yes
Format settings, RefFrames : 9 frames
Codec ID : V_MPEG4/ISO/AVC
Duration : 24 min 26 s
Bit rate : 1 600 kb/s
Width : 1 024 pixels
Height : 576 pixels
Display aspect ratio : 16:9
Frame rate mode : Constant
Frame rate : 25.000 FPS
Color space : YUV
Chroma subsampling : 4:2:0
Bit depth : 8 bits
Scan type : Progressive
Bits/(Pixel*Frame) : 0.109
Stream size : 274 MiB (87%)
Writing library : x264 core 146 r2538 121396c
Encoding settings : cabac=1 / ref=9 / deblock=1:-2:-1 / analyse=0x3:0x133 / me=umh / subme=9 / psy=1 / psy_rd=1.00:0.15 / mixed_ref=1 / me_range=32 / chroma_me=1 / trellis=2 / 8x8dct=1 / cqm=0 / deadzone=21,11 / fast_pskip=0 / chroma_qp_offset=-3 / threads=18 / lookahead_threads=3 / sliced_threads=0 / nr=0 / decimate=1 / interlaced=0 / bluray_compat=0 / constrained_intra=0 / bframes=9 / b_pyramid=2 / b_adapt=2 / b_bias=0 / direct=1 / weightb=1 / open_gop=0 / weightp=2 / keyint=250 / keyint_min=25 / scenecut=40 / intra_refresh=0 / rc=2pass / mbtree=0 / bitrate=1600 / ratetol=1.0 / qcomp=0.60 / qpmin=0 / qpmax=69 / qpstep=4 / cplxblur=20.0 / qblur=0.5 / ip_ratio=1.40 / pb_ratio=1.30 / aq=2:1.00
Default : Yes
Forced : No
Color range : Limited
Color primaries : BT.709
Transfer characteristics : BT.709
Matrix coefficients : BT.709

Audio
ID : 2
Format : AC-3
Format/Info : Audio Coding 3
Format settings, Endianness : Big
Codec ID : A_AC3
Duration : 24 min 26 s
Bit rate mode : Constant
Bit rate : 192 kb/s
Channel(s) : 2 channels
Channel positions : Front: L R
Sampling rate : 48.0 kHz
Frame rate : 31.250 FPS (1536 SPF)
Bit depth : 16 bits
Compression mode : Lossy
Stream size : 33.6 MiB (11%)
Service kind : Complete Main
Default : Yes
Forced : No

pb.wtf



Скачать Короли палат через торрент https://i111.fastpic.ru/big/2020/0301/e3/a01319a1de0c244ec05f7831f3b477e3.jpg Скачать фильм Короли палат через торрент бесплантно в хорошем качестве Описание: История двух братьев-врачей, пошедших разными путями. Пока интеллигент и семьянин Тарас трудится педиатром в бесплатной ... 6.4 10 5
Торрент: Зарегистрирован [2020-03-02 10:19] · скачан: 23 раз
Статус: √ проверено
Размер: 5.99 GB
Как cкачать? Как скачать Короли палат через торрент | qTorrent

% Раздел Тема Автор DL S | L
Наши сериалы [ 17.75 GB ] Короли палат / Сезон: 1 / Серии: 1-20 из 20 [2019 WEB-DL 1080p] bober100 Скачать
1 | 0
Наши сериалы [ 9.23 GB ] Короли палат / Сезон: 1 / Серии: 1-20 из 20 [2019 WEB-DL 720p] bober100 Скачать
1 | 0
Наши сериалы [ 6.02 GB ] Короли палат / Сезон: 1 / Серии: 1-20 из 20 [2019 WEB-DLRip] bober100 Скачать
1 | 0

28-11-2019 20:33  

Отключить всю рекламу на сайте

    Дорогой пользователь! Огромная просьба, поблагодарите релизера, оцените раздачу и оставьте свои комментарий, если Вы скачали Короли палат через торрент бесплатно! Внесите свою лепту в развитие PiratBit!
    Комментировать посты могут только пользователи прошедшие не сложную регистрацию
    Показать сообщения:    

    Короли палат через торрент
    Скачать бесплатно Короли палат
    Короли палат скачать торрент
    Короли палат смотреть онлайн
    Cкачать фильм Короли палат бесплатно
    Короли палат скачать торрент в хорошем качестве
    Короли палат смотреть онлайн бесплатно в хорошем качестве


    Вы не можете начинать темы
    Вы не можете отвечать на сообщения
    Вы не можете редактировать свои сообщения
    Вы не можете удалять свои сообщения
    Вы не можете голосовать в опросах
    Вы не можете прикреплять файлы к сообщениям
    Вы можете скачивать файлы