Ссылка на приватное зеркало нашего сайта всего за 1$. Внимание количество ограничено!!!

2 сезон

iTunes

1 сезон

1

iTunes

iTunes

iTunes

1 сезон

RePack

30

ИГРА 18+

pack

ВАЖНО

!!Акция!!

Alien_RageХит недели

RePack

MK11
pack

Забери бонус

RePack

jed

!!Акция!!

Alien_Rage

RePack

fifa19

RePack

Assassins Creed: Odyssey

RePack

NEED FOR SPEED™ PAYBACK

4 сезон

9 сезон

Бесстыжие 9 сезон

Все сериалы

все сериалы на PB.wtf

RePack

FAR CRY 5
  

Короли палат / Сезон: 1 / Серии: 1-20 из 20 (Павел Потатуев) [2019, Комедия, WEB-DLRip] pb.wtf

Короли палат через торрент pb.wtf

Размер: 6.02 GB | Добавлен: 7 мес. назад | Торрент скачан:35 раз
Скачать  

02-03-2020 12:56 Короли палат Скачать торрент  

Короли палат Год выпуска: 2019
Страна: Украина
Жанр: Комедия
Продолжительность: ~ 00:24:00
Перевод: Не требуется
Субтитры: отсутствуют

Режиссер: Павел Потатуев



В ролях: Юрий Дяк, Владимир Ращук, Ольга Жуковцова-Кияшко, Дмитрий Савьяненко, Вячеслав Василюк, Татьяна Лавская

Описание: История двух братьев-врачей, пошедших разными путями. Пока интеллигент и семьянин Тарас трудится педиатром в бесплатной поликлинике, его брат-ловелас Егор строит карьеру в пластической хирургии. Владимир Ращук и Юрий Дяк в многосерийной украинской комедии «Короли палат». Трудно найти более непохожих братьев, чем неисправимый «отличник» Тарас, стремящийся жить по правилам, и самоуверенный весельчак Егор, ищущий от жизни простых удовольствий. Кроме родственных связей, братьев объединяет медицинское образование и общее место работы. На этом их видимые сходства заканчиваются. Человек долга Тарас выбрал для себя сложный путь: он терпеливо несет службу педиатра в государственной бюджетной поликлинике. Егору такие подвиги не по душе: в той же поликлинике он оказывает платные услуги, неплохо зарабатывая в качестве пластического хирурга. У него всегда находится время на простые удовольствия и развлечения, а прежде всего – на общение с красивыми женщинами. Так братья оказались на разных ступенях социальной лестницы, что, впрочем, не мешает им оставаться одной семьей.

Качество: WEB-DLRip
Формат: AVI

Видео: 720x400 (1.80:1), 25 fps, XviD build 73 ~1600 kbps avg, 0.22 bit/pixel
Аудио: 48 kHz, AC3 Dolby Digital, 2/0 (L,R) ch, ~192.00 kbps avg
скриншот  скриншот  скриншот  скриншот  скриншот  

General
Complete name : D:\Короли палат.2020.WEB-DLRip.Files-x\01. Короли палат.2020.WEB-DLRip.Files-x.avi
Format : AVI
Format/Info : Audio Video Interleave
File size : 315 MiB
Duration : 24 min 26 s
Overall bit rate : 1 801 kb/s
Writing application : VirtualDubMod 1.5.10.3 | www.virtualdub-fr.org || (build 2550/release)
Writing library : VirtualDubMod build 2550/release

Video
ID : 0
Format : MPEG-4 Visual
Format profile : Advanced Simple@L5
Format settings : BVOP1 / Custom Matrix
Format settings, BVOP : 1
Format settings, QPel : No
Format settings, GMC : No warppoints
Format settings, Matrix : Custom
Codec ID : XVID
Codec ID/Hint : XviD
Duration : 24 min 26 s
Bit rate : 1 600 kb/s
Width : 720 pixels
Height : 400 pixels
Display aspect ratio : 16:9
Frame rate : 25.000 FPS
Color space : YUV
Chroma subsampling : 4:2:0
Bit depth : 8 bits
Scan type : Progressive
Compression mode : Lossy
Bits/(Pixel*Frame) : 0.222
Stream size : 280 MiB (89%)
Writing library : XviD 73

Audio
ID : 1
Format : AC-3
Format/Info : Audio Coding 3
Codec ID : 2000
Duration : 24 min 26 s
Bit rate mode : Constant
Bit rate : 192 kb/s
Channel(s) : 2 channels
Channel positions : Front: L R
Sampling rate : 48.0 kHz
Frame rate : 31.250 FPS (1536 SPF)
Bit depth : 16 bits
Compression mode : Lossy
Stream size : 33.6 MiB (11%)
Alignment : Split accross interleaves
Interleave, duration : 40 ms (1.00 video frame)
Interleave, preload duratio : 500 ms
Service kind : Complete Main

pb.wtf



Скачать Короли палат через торрент https://i111.fastpic.ru/big/2020/0301/e3/a01319a1de0c244ec05f7831f3b477e3.jpg Скачать фильм Короли палат через торрент бесплантно в хорошем качестве Описание: История двух братьев-врачей, пошедших разными путями. Пока интеллигент и семьянин Тарас трудится педиатром в бесплатной ... 7 10 3
Торрент: Зарегистрирован [2020-03-02 12:56] · скачан: 35 раз
Статус: √ проверено
Размер: 6.02 GB
Как cкачать? Как скачать Короли палат через торрент | qTorrent

% Раздел Тема Автор DL S | L
Наши сериалы [ 17.75 GB ] Короли палат / Сезон: 1 / Серии: 1-20 из 20 [2019 WEB-DL 1080p] bober100 Скачать
1 | 0
Наши сериалы [ 9.23 GB ] Короли палат / Сезон: 1 / Серии: 1-20 из 20 [2019 WEB-DL 720p] bober100 Скачать
1 | 0
Наши сериалы [ 5.99 GB ] Короли палат / Сезон: 1 / Серии: 1-20 из 20 [2019 WEB-DLRip-AVC] bober100 Скачать
1 | 0

28-11-2019 20:33  

Отключить всю рекламу на сайте

    Дорогой пользователь! Огромная просьба, поблагодарите релизера, оцените раздачу и оставьте свои комментарий, если Вы скачали Короли палат через торрент бесплатно! Внесите свою лепту в развитие PiratBit!
    Комментировать посты могут только пользователи прошедшие не сложную регистрацию
    Показать сообщения:    

    Короли палат через торрент
    Скачать бесплатно Короли палат
    Короли палат скачать торрент
    Короли палат смотреть онлайн
    Cкачать фильм Короли палат бесплатно
    Короли палат скачать торрент в хорошем качестве
    Короли палат смотреть онлайн бесплатно в хорошем качестве


    Вы не можете начинать темы
    Вы не можете отвечать на сообщения
    Вы не можете редактировать свои сообщения
    Вы не можете удалять свои сообщения
    Вы не можете голосовать в опросах
    Вы не можете прикреплять файлы к сообщениям
    Вы можете скачивать файлы