Ссылка на приватное зеркало нашего сайта всего за 1$. Внимание количество ограничено!!!

2 сезон

iTunes

1 сезон

1

iTunes

iTunes

iTunes

1 сезон

RePack

30

ИГРА 18+

pack

ВАЖНО

!!Акция!!

Alien_RageХит недели

RePack

MK11
pack

Забери бонус

RePack

jed

!!Акция!!

Alien_Rage

RePack

fifa19

RePack

Assassins Creed: Odyssey

RePack

NEED FOR SPEED™ PAYBACK

4 сезон

9 сезон

Бесстыжие 9 сезон

Все сериалы

все сериалы на PB.wtf

RePack

FAR CRY 5
  

День солнца / Серии: 1-4 из 4 (Виктория Мельникова) [2019, Мелодрама, WEB-DLRip] pb.wtf

День солнца через торрент pb.wtf

Размер: 2.29 GB | Добавлен: 7 мес. назад | Торрент скачан:11 раз
Скачать  

02-03-2020 16:44 День солнца Скачать торрент  

День солнца
Год выпуска: 2019
Страна: Украина
Жанр: Мелодрама
Продолжительность: ~ 00:45:00 серия
Перевод: Не требуется
Субтитры: отсутствуют

Режиссер: Виктория Мельникова



В ролях: Евгения Лоза, Александр Пашков, Виктор Васильев (III), Егор Козлов, Ксения Николаева, Валерия Ходос, Ксения Данилова (II), Ирина Гришак, Елизавета Зайцева, Юрий Евсюков, Дмитрий Чернов (II), Даниил Мирешкин, Анастасия Лютова, Даниил Сушко, Сергей Гирич, Константин Данилюк, Анатолий Тихомиров, Сергей Ладесов, Елена Сикорская, Мария Заныборщ

Описание: Жизнь Анны Громовой, хозяйки столичной галереи, идет под откос. Узнав об измене мужа Игоря, она уходит от него и подает на развод. Но Игорь готов на все, чтобы удержать любимую жену: сначала он устраивает все так, что после развода Анна останется ни с чем, а потом добирается до ее галереи. У Анны есть всего неделя, чтобы выплатить долг по аренде, иначе галерея будет продана. Кроме того, подходит срок выплаты по кредиту за квартиру, а денег нет. Подруга Анны, опытный кризис-менеджер, предлагает ей организовать выставку знаменитого художника Вадима Хорса, который впервые за много лет вернулся в свой родной город. Мы узнаем, что 20 лет назад Анна и Вадим жили в одном городке, были влюблены, встречались, но потом Вадим неожиданно уехал на учебу в Америку, бросив Анну. Для Анны предательство любимого человека стало шоком, от которого она так и не смогла оправиться. Анна решает узнать у Вадима, что случилось 20 лет назад.

Качество: WEB-DLRip
Формат: AVI

Видео: XviD, ~ 1600 Кбит/с, 720x416, 25 кадр/с
Аудио: AC3 Dolby Digital, 48.0 kHz, 2/0 (L,R) ch, 192 kbps
скриншот  скриншот  скриншот  скриншот  скриншот  

General
Complete name : C:01.День солнца.(2019).WEB-DLRip.by.Nicodem.Files-x.avi
Format : AVI
Format/Info : Audio Video Interleave
File size : 585 MiB
Duration : 45mn 24s
Overall bit rate : 1 801 Kbps
Writing application : VirtualDubMod 1.5.10.3 | www.virtualdub-fr.org || (build 2550/release)
Writing library : VirtualDubMod build 2550/release

Video
ID : 0
Format : MPEG-4 Visual
Format profile : Advanced Simple@L5
Format settings, BVOP : 1
Format settings, QPel : No
Format settings, GMC : No warppoints
Format settings, Matrix : Custom
Codec ID : XVID
Codec ID/Hint : XviD
Duration : 45mn 24s
Bit rate : 1 600 Kbps
Width : 720 pixels
Height : 400 pixels
Display aspect ratio : 16:9
Frame rate : 25.000 fps
Color space : YUV
Chroma subsampling : 4:2:0
Bit depth : 8 bits
Scan type : Progressive
Compression mode : Lossy
Bits/(Pixel*Frame) : 0.222
Stream size : 520 MiB (89%)
Writing library : XviD 73

Audio
ID : 1
Format : AC-3
Format/Info : Audio Coding 3
Mode extension : CM (complete main)
Codec ID : 2000
Duration : 45mn 24s
Bit rate mode : Constant
Bit rate : 192 Kbps
Channel(s) : 2 channels
Channel positions : Front: L R
Sampling rate : 48.0 KHz
Bit depth : 16 bits
Compression mode : Lossy
Stream size : 62.4 MiB (11%)
Alignment : Split accross interleaves
Interleave, duration : 40 ms (1.00 video frame)
Interleave, preload duration : 500 ms

pb.wtf



Скачать День солнца через торрент https://i89.fastpic.ru/big/2019/0909/96/61fb990331c0de285082891869423496.jpg Скачать фильм День солнца через торрент бесплантно в хорошем качестве Описание: Жизнь Анны Громовой, хозяйки столичной галереи, идет под откос. Узнав об измене мужа Игоря, она уходит от него и подает на ... 10 10 4
Торрент: Зарегистрирован [2020-03-02 16:44] · скачан: 11 раз
Статус: √ проверено
Размер: 2.29 GB
Как cкачать? Как скачать День солнца через торрент | qTorrent

% Раздел Тема Автор DL S | L
Наши сериалы [ 6.64 GB ] День солнца / Серии: 1-4 из 4 [2019 Мело WEB-DL 1080p] bober100 Скачать
1 | 0
Наши сериалы [ 4.71 GB ] День солнца / Серии: 1-4 из 4 [2019 Мело WEB-DL 720p] bober100 Скачать
1 | 0
Наши сериалы [ 2.31 GB ] День солнца / Серии: 1-4 из 4 [2019 Мело WEB-DLRip-AVC] bober100 Скачать
1 | 0

28-11-2019 20:33  

Отключить всю рекламу на сайте

    Дорогой пользователь! Огромная просьба, поблагодарите релизера, оцените раздачу и оставьте свои комментарий, если Вы скачали День солнца через торрент бесплатно! Внесите свою лепту в развитие PiratBit!
    Комментировать посты могут только пользователи прошедшие не сложную регистрацию
    Показать сообщения:    

    День солнца через торрент
    Скачать бесплатно День солнца
    День солнца скачать торрент
    День солнца смотреть онлайн
    Cкачать фильм День солнца бесплатно
    День солнца скачать торрент в хорошем качестве
    День солнца смотреть онлайн бесплатно в хорошем качестве


    Вы не можете начинать темы
    Вы не можете отвечать на сообщения
    Вы не можете редактировать свои сообщения
    Вы не можете удалять свои сообщения
    Вы не можете голосовать в опросах
    Вы не можете прикреплять файлы к сообщениям
    Вы можете скачивать файлы