Ссылка на приватное зеркало нашего сайта всего за 1$. Внимание количество ограничено!!!

2 сезон

iTunes

1 сезон

1

2 сезон

2 сезон

iTunes

1 сезон

RePack

30

Ultimate

ВАЖНО

ИГРА 18+

pack

RePack

MK11
pack

Забери бонус

RePack

jed

!!Акция!!

Alien_Rage

RePack

fifa19

RePack

Assassins Creed: Odyssey

RePack

NEED FOR SPEED™ PAYBACK

4 сезон

9 сезон

Бесстыжие 9 сезон

Все сериалы

все сериалы на PB.wtf

RePack

FAR CRY 5
  

Маленькие женщины / Little Women (Грета Гервиг) [2019, Драма, мелодрама, WEB-DL 720p] DUB (rus, ukr) [iTunes] pb.wtf

Маленькие женщины через торрент pb.wtf

Размер: 4.58 GB | Добавлен: 8 мес. назад | Торрент скачан:153 раза
Скачать  

04-03-2020 21:20 Маленькие женщины Скачать торрент  

Маленькие женщины | Little Women
Год выпуска: 2019
Страна: США
Студия: Columbia Pictures, New Regency Pictures, Pascal Pictures
Жанр: Драма, мелодрама
Продолжительность: 02:15:50
Перевод: Дублированный | iTunes
Субтитры: Russian (Full, Forced), Ukrainian (Full), English

Режиссер: Грета Гервиг

rating

В ролях: Сирша Ронан, Эмма Уотсон, Флоренс Пью, Элайза Сканлен, Лора Дерн, Тимоти Шаламе, Трэйси Леттс, Боб Оденкёрк, Джеймс Нортон, Луи Гаррель

Описание: Фильм рассказывает о взрослении четырех непохожих друг на друга сестер. Действие разворачивается во времена Гражданской войны в США, но проблемы, с которыми сталкиваются девушки, актуальны как никогда: первая любовь, горькое разочарование, томительная разлука и непростые поиски себя и своего места в жизни.

Качество: WEB-DL 720p
Формат: MKV

Видео: MPEG-4 AVC, 3898 Kbit/s, 1280x688, 23.976 fps
Аудио #01: 48 kHz, AC3, 5.1, 384 Kbps | iTunes | RUS |
Аудио #02: 48 kHz, AC3, 2.0, 192 Kbps | Дублированный | UKR |
Аудио #03: 48 kHz, AC3, 5.1, 384 Kbps | Оригинал | ENG |
скриншот  скриншот  скриншот  скриншот  

Complete name : D:Malenkie.zhenschinyi.2019.WEB-DL.720.ELEKTRI4KA.UNIONGANG.mkv
Format : Matroska
Format version : Version 4 / Version 2
File size : 4.58 GiB
Duration : 2 h 14 min
Overall bit rate : 4 861 kb/s
Movie name : ELEKTRI4KA.UNIONGANG
Encoded date : UTC 2020-03-04 20:46:59
Writing application : mkvmerge v8.3.0 ('Over the Horizon') 64bit
Writing library : libebml v1.3.1 + libmatroska v1.4.2

Video
ID : 1
Format : AVC
Format/Info : Advanced Video Codec
Format profile : High@L3.1
Format settings, CABAC : No
Format settings, Reference frames : 2 frames
Codec ID : V_MPEG4/ISO/AVC
Duration : 2 h 14 min
Bit rate : 3 898 kb/s
Width : 1 280 pixels
Height : 688 pixels
Display aspect ratio : 1.85:1
Frame rate mode : Constant
Frame rate : 23.976 (24000/1001) FPS
Color space : YUV
Chroma subsampling : 4:2:0
Bit depth : 8 bits
Scan type : Progressive
Bits/(Pixel*Frame) : 0.185
Stream size : 3.67 GiB (80%)
Language : English
Default : Yes
Forced : No
Color range : Limited
Color primaries : BT.709
Transfer characteristics : BT.709
Matrix coefficients : BT.709

Audio #1
ID : 2
Format : AC-3
Format/Info : Audio Coding 3
Mode extension : CM (complete main)
Format settings, Endianness : Big
Codec ID : A_AC3
Duration : 2 h 14 min
Bit rate mode : Constant
Bit rate : 384 kb/s
Channel(s) : 6 channels
Channel positions : Front: L C R, Side: L R, LFE
Sampling rate : 48.0 kHz
Frame rate : 31.250 FPS (1536 spf)
Bit depth : 16 bits
Compression mode : Lossy
Stream size : 370 MiB (8%)
Title : iTunes
Language : Russian
Default : Yes
Forced : No

Audio #2
ID : 3
Format : AC-3
Format/Info : Audio Coding 3
Mode extension : CM (complete main)
Format settings, Endianness : Big
Codec ID : A_AC3
Duration : 2 h 14 min
Bit rate mode : Constant
Bit rate : 192 kb/s
Channel(s) : 2 channels
Channel positions : Front: L R
Sampling rate : 48.0 kHz
Frame rate : 31.250 FPS (1536 spf)
Bit depth : 16 bits
Compression mode : Lossy
Stream size : 185 MiB (4%)
Language : Ukrainian
Default : No
Forced : No

Audio #3
ID : 4
Format : AC-3
Format/Info : Audio Coding 3
Mode extension : CM (complete main)
Format settings, Endianness : Big
Codec ID : A_AC3
Duration : 2 h 14 min
Bit rate mode : Constant
Bit rate : 384 kb/s
Channel(s) : 6 channels
Channel positions : Front: L C R, Side: L R, LFE
Sampling rate : 48.0 kHz
Frame rate : 31.250 FPS (1536 spf)
Bit depth : 16 bits
Compression mode : Lossy
Stream size : 370 MiB (8%)
Language : English
Default : No
Forced : No

Text #1
ID : 5
Format : UTF-8
Codec ID : S_TEXT/UTF8
Codec ID/Info : UTF-8 Plain Text
Duration : 2 h 13 min
Bit rate : 0 b/s
Count of elements : 7
Stream size : 416 Bytes (0%)
Title : Forced
Language : Russian
Default : Yes
Forced : No

Text #2
ID : 6
Format : UTF-8
Codec ID : S_TEXT/UTF8
Codec ID/Info : UTF-8 Plain Text
Duration : 2 h 13 min
Bit rate : 89 b/s
Count of elements : 1730
Stream size : 88.0 KiB (0%)
Title : Full
Language : Russian
Default : No
Forced : No

Text #3
ID : 7
Format : UTF-8
Codec ID : S_TEXT/UTF8
Codec ID/Info : UTF-8 Plain Text
Duration : 2 h 13 min
Bit rate : 110 b/s
Count of elements : 1722
Stream size : 108 KiB (0%)
Title : Full
Language : Ukrainian
Default : No
Forced : No

Text #4
ID : 8
Format : UTF-8
Codec ID : S_TEXT/UTF8
Codec ID/Info : UTF-8 Plain Text
Duration : 2 h 5 min
Bit rate : 68 b/s
Count of elements : 1664
Stream size : 62.5 KiB (0%)
Language : English
Default : No
Forced : No

Text #5
ID : 9
Format : UTF-8
Codec ID : S_TEXT/UTF8
Codec ID/Info : UTF-8 Plain Text
Duration : 2 h 5 min
Bit rate : 68 b/s
Count of elements : 1664
Stream size : 62.5 KiB (0%)
Language : English
Default : No
Forced : No

Menu
00:00:00.000 : en:1
00:06:02.612 : en:2
00:12:05.599 : en:3
00:24:24.628 : en:4
00:30:18.063 : en:5
00:38:39.272 : en:6
00:47:06.237 : en:7
00:57:35.657 : en:8
01:07:18.113 : en:9
01:16:24.533 : en:10
01:20:07.129 : en:11
01:25:45.341 : en:12
01:29:35.320 : en:13
01:39:53.688 : en:14
01:49:37.480 : en:15
02:06:21.442 : en:16

pb.wtf



Скачать Маленькие женщины через торрент https://img10.lostpic.net/2020/03/04/32e8e9da38adac5248f056b4be3c6fae.jpg Скачать фильм Маленькие женщины через торрент бесплантно в хорошем качестве Описание: Фильм рассказывает о взрослении четырех непохожих друг на друга сестер. Действие разворачивается во времена Гражданской войны в ... 10 10 3
Торрент: Зарегистрирован [2020-03-04 21:20] · скачан: 153 раз
Статус: √ проверено
Размер: 4.58 GB
Как cкачать? Как скачать Маленькие женщины через торрент | qTorrent

% Раздел Тема Автор DL S | L
Фильмы 2019-2020 [DVDrip, WEB-DLRip, HDrip] (DUB, MVO) [ 797 MB ] Маленькие женщины / Little Women [2019 HDRip] DUB [] bober100 Скачать
1 | 0
Фильмы 2019-2020 [DVDrip, WEB-DLRip, HDrip] (DUB, MVO) [ 1.46 GB ] Маленькие женщины / Little Women [2019 BDRip-AVC] DUB [] bober100 Скачать
3 | 0
Фильмы 2019-2020 [DVDrip, WEB-DLRip, HDrip] (DUB, MVO) [ 2.9 GB ] Маленькие женщины / Little Women [2019 BDRip-AVC] DUB [] bober100 Скачать
2 | 0
Фильмы (Blu-ray, BD-Remux, HDDVD) [ 39.4 GB ] Маленькие женщины / Little Women [2019 Blu-Ray EUR 1080p] DUB [] bober100 Скачать
1 | 1
Фильмы 2019-2020 [DVDrip, WEB-DLRip, HDrip] (DUB, MVO) [ 2.21 GB ] Маленькие женщины / Little Women [2019 BDRip] - [] Twi7ter Скачать
7 | 1
Фильмы 2019-2020 [DVDrip, WEB-DLRip, HDrip] (DUB, MVO) [ 1.49 GB ] Маленькие женщины / Little Women [2019 BDRip] - [] Twi7ter Скачать
19 | 0
Фильмы (Blu-ray, BD-Remux, HDDVD) [ 26.28 GB ] Маленькие женщины / Little Women [2019 BD Remux 1080p] DUB [] bober100 Скачать
2 | 0

28-11-2019 20:33  

Отключить всю рекламу на сайте

    Дорогой пользователь! Огромная просьба, поблагодарите релизера, оцените раздачу и оставьте свои комментарий, если Вы скачали Маленькие женщины через торрент бесплатно! Внесите свою лепту в развитие PiratBit!
    Комментировать посты могут только пользователи прошедшие не сложную регистрацию
    Показать сообщения:    

    Маленькие женщины через торрент
    Скачать бесплатно Маленькие женщины
    Маленькие женщины скачать торрент
    Маленькие женщины смотреть онлайн
    Cкачать фильм Маленькие женщины бесплатно
    Маленькие женщины скачать торрент в хорошем качестве
    Маленькие женщины смотреть онлайн бесплатно в хорошем качестве


    Вы не можете начинать темы
    Вы не можете отвечать на сообщения
    Вы не можете редактировать свои сообщения
    Вы не можете удалять свои сообщения
    Вы не можете голосовать в опросах
    Вы не можете прикреплять файлы к сообщениям
    Вы можете скачивать файлы