Ссылка на приватное зеркало нашего сайта всего за 1$. Внимание количество ограничено!!!

2 сезон

iTunes

1 сезон

1

2 сезон

2 сезон

iTunes

1 сезон

RePack

30

Новинка

ВАЖНО

ИГРА 18+

pack

RePack

MK11
pack

Забери бонус

RePack

jed

!!Акция!!

Alien_Rage

RePack

fifa19

RePack

Assassins Creed: Odyssey

RePack

NEED FOR SPEED™ PAYBACK

4 сезон

9 сезон

Бесстыжие 9 сезон

Все сериалы

все сериалы на PB.wtf

RePack

FAR CRY 5
  

Марафон желаний (Даша Чаруша) [2020, Комедия, мелодрама, WEB-DLRip-AVC] [iTunes] pb.wtf

Марафон желаний через торрент pb.wtf

Раздают: 6 [ 8 KB/s ]
Размер: 1.46 GB | Добавлен: 8 мес. назад | Торрент скачан:778 раз
Скачать  

05-03-2020 10:27 Марафон желаний Скачать торрент  

Марафон желаний
Год выпуска: 2020
Страна: Россия
Жанр: Комедия, мелодрама
Продолжительность: 01:29:48
Перевод: Не требуется | iTunes
Субтитры: отсутствуют

Режиссер: Даша Чаруша

rating

В ролях: Аглая Тарасова, Кирилл Нагиев, Мария Миногарова, Александр Гудков, Яна Троянова, Павел Деревянко, Юлия Ауг, Екатерина Варнава, Макар Запорожский, Олег Курсачёв

Описание: «Я хочу нижнее белье из одного комплекта. Я хочу в Париж. Я хочу увидеть мир. Я хочу замуж за любимого. Я хочу новые духи. Я хочу отдать кредит за окна! Я хочу найти паспорт до свадьбы»...
У Марины есть 7 желаний. Но главное - стать счастливой. Однако пересадка в Пулково и неожиданная встреча вносят свои коррективы в ее планы.

Качество: WEB-DLRip-AVC
Формат: MKV

Видео: 1024x428 (2,40:1), 25 fps, MPEG-4 AVC, 1940 Кbps avg, 0.177 bit/pixel
Аудио: AC3, 48 kHz, 6 ch, ~384.00 kbps avg | русский | iTunes
скриншот  скриншот  скриншот  скриншот  

Общее
Уникальный идентификатор : 311273188073770120477371810287825234809 (0xEA2D090EA372F4F462CECF394BFCAB79)
Полное имя : MARAFON_ZHELANIJ_2020_WEB-DLRip.x264.mkv
Формат : Matroska
Версия формата : Version 4
Размер файла : 1,46 Гбайт
Продолжительность : 1 ч. 29 м.
Общий поток : 2323 Кбит/сек
Название фильма : Марафон желаний (2020)
Дата кодирования : UTC 2020-03-05 09:36:00
Программа кодирования : mkvmerge v41.0.0 ('Smarra') 64-bit
Библиотека кодирования : libebml v1.3.9 + libmatroska v1.5.2
Обложка : Yes
Attachments : cover5.png

Видео
Идентификатор : 1
Формат : AVC
Формат/Информация : Advanced Video Codec
Профиль формата : High@L4.1
Настройки формата : CABAC / 10 Ref Frames
Параметр CABAC формата : Да
Параметр RefFrames формата : 10 кадров
Идентификатор кодека : V_MPEG4/ISO/AVC
Продолжительность : 1 ч. 29 м.
Битрейт : 1940 Кбит/сек
Ширина : 1024 пикселя
Высота : 428 пикселей
Соотношение сторон : 2,40:1
Режим частоты кадров : Постоянный
Частота кадров : 25,000 кадров/сек
Цветовое пространство : YUV
Субдискретизация насыщенности : 4:2:0
Битовая глубина : 8 бит
Тип развёртки : Прогрессивная
Бит/(Пиксели*Кадры) : 0.177
Размер потока : 1,21 Гбайт (83%)
Заголовок : #stillet
Библиотека кодирования : x264 core 152 r2851bm ba24899
Настройки программы : cabac=1 / ref=10 / deblock=1:-3:-3 / analyse=0x3:0x113 / me=umh / subme=11 / psy=1 / psy_rd=1.00:0.15 / mixed_ref=1 / me_range=32 / chroma_me=1 / trellis=2 / 8x8dct=1 / cqm=0 / deadzone=21,11 / fast_pskip=0 / chroma_qp_offset=-3 / threads=8 / lookahead_threads=3 / sliced_threads=0 / nr=0 / decimate=0 / interlaced=0 / bluray_compat=0 / constrained_intra=0 / bframes=12 / b_pyramid=2 / b_adapt=2 / b_bias=0 / direct=3 / weightb=1 / open_gop=0 / weightp=2 / keyint=250 / keyint_min=25 / scenecut=40 / intra_refresh=0 / rc=2pass / mbtree=0 / bitrate=1940 / ratetol=1.0 / qcomp=0.60 / qpmin=0 / qpmax=69 / qpstep=4 / cplxblur=20.0 / qblur=0.5 / ip_ratio=1.40 / pb_ratio=1.30 / aq=1:1.00
Язык : Russian
Default : Да
Forced : Нет

Аудио
Идентификатор : 2
Формат : AC-3
Формат/Информация : Audio Coding 3
Коммерческое название : Dolby Digital
Идентификатор кодека : A_AC3
Продолжительность : 1 ч. 29 м.
Вид битрейта : Постоянный
Битрейт : 384 Кбит/сек
Каналы : 6 каналов
ChannelLayout : L R C LFE Ls Rs
Частота : 48,0 КГц
Частота кадров : 31,250 кадров/сек (1536 SPF)
Метод сжатия : С потерями
Размер потока : 247 Мбайт (17%)
Заголовок : iTunes
Язык : Russian
Default : Да
Forced : Нет

Меню
00:00:00.000 : en:Глава 1
00:08:04.440 : en:Глава 2
00:16:18.160 : en:Глава 3
00:24:37.600 : en:Глава 4
00:32:52.760 : en:Глава 5
00:41:14.080 : en:Глава 6
00:49:22.480 : en:Глава 7
00:56:31.280 : en:Глава 8
01:04:40.640 : en:Глава 9
01:13:15.640 : en:Глава 10
01:21:25.640 : en:Глава 11

pb.wtf



Скачать Марафон желаний через торрент https://i111.fastpic.ru/big/2020/0204/c8/6a58de16f6de1fa263d63af4e7eaefc8.jpg Скачать фильм Марафон желаний через торрент бесплантно в хорошем качестве Описание: «Я хочу нижнее белье из одного комплекта. Я хочу в Париж. Я хочу увидеть мир. Я хочу замуж за любимого. Я хочу новые духи. Я хочу ... 9.4 10 18
Торрент: Зарегистрирован [2020-03-05 10:27] · скачан: 778 раз
Статус: √ проверено
Размер: 1.46 GB
Как cкачать? Как скачать Марафон желаний через торрент | qTorrent

% Раздел Тема Автор DL S | L
Наши фильмы (HD, WEB-DL 720p, 1080p) [ 3.14 GB ] Марафон желаний [2020 WEB-DL 1080p] bober100 Скачать
5 | 0
Наши фильмы (HD, WEB-DL 720p, 1080p) [ 2.31 GB ] Марафон желаний [2020 WEB-DLRip 720p] - ExKinoRay Enigma2010 Скачать
176 | 4
Наши новые фильмы 2018-2019 [ 744 MB ] Марафон желаний [2020 WEB-DLRip] bober100 Скачать
8 | 0
Наши новые фильмы 2018-2019 [ 1.46 GB ] Марафон желаний [2020 WEB-DLRip] bober100 Скачать
2 | 0

28-11-2019 20:33  

Отключить всю рекламу на сайте

    Дорогой пользователь! Огромная просьба, поблагодарите релизера, оцените раздачу и оставьте свои комментарий, если Вы скачали Марафон желаний через торрент бесплатно! Внесите свою лепту в развитие PiratBit!
    Комментировать посты могут только пользователи прошедшие не сложную регистрацию
    Показать сообщения:    

    Марафон желаний через торрент
    Скачать бесплатно Марафон желаний
    Марафон желаний скачать торрент
    Марафон желаний смотреть онлайн
    Cкачать фильм Марафон желаний бесплатно
    Марафон желаний скачать торрент в хорошем качестве
    Марафон желаний смотреть онлайн бесплатно в хорошем качестве


    Вы не можете начинать темы
    Вы не можете отвечать на сообщения
    Вы не можете редактировать свои сообщения
    Вы не можете удалять свои сообщения
    Вы не можете голосовать в опросах
    Вы не можете прикреплять файлы к сообщениям
    Вы можете скачивать файлы