Ссылка на приватное зеркало нашего сайта всего за 1$. Внимание количество ограничено!!!

2 сезон

iTunes

1 сезон

1

2 сезон

2 сезон

iTunes

1 сезон

RePack

30

Новинка

ВАЖНО

ИГРА 18+

pack

RePack

MK11
pack

Забери бонус

RePack

jed

!!Акция!!

Alien_Rage

RePack

fifa19

RePack

Assassins Creed: Odyssey

RePack

NEED FOR SPEED™ PAYBACK

4 сезон

9 сезон

Бесстыжие 9 сезон

Все сериалы

все сериалы на PB.wtf

RePack

FAR CRY 5
  

Корпорация Монстров / Monsters, Inc. (Пит Доктер, Дэвид Силверман, Ли Анкрич) [2001, Мультфильм, комедия, семейный, UHD BDRemux 2160p] DUB [Лицензия] pb.wtf

Корпорация Монстров через торрент pb.wtf

Раздают: 1 [ 2 MB/s ]
Размер: 36.77 GB | Добавлен: 8 мес. назад | Торрент скачан:22 раза
Скачать  

05-03-2020 13:51 Корпорация Монстров Скачать торрент  

Корпорация Монстров | Monsters, Inc.
Год выпуска: 2001
Страна: США
Студия: Pixar Animation Studios, Walt Disney Pictures
Жанр: Мультфильм, комедия, семейный, полнометражный
Продолжительность: 01:32:09
Перевод: Дублированный | Лицензия
Субтитры: Русские (Forced, 4 x Full), английские

Режиссер: Пит Доктер, Дэвид Силверман, Ли Анкрич

rating

В ролях: Джон Гудмен, Билли Кристал, Мэри Гиббс, Стив Бушеми, Джеймс Коберн, Дженнифер Тилли, Боб Петерсон, Джон Ратценбергер, Фрэнк Оз, Дэн Джерсон, Стив Сусскинд, Бонни Хант, Джефф Пиджон, Сэмюэл Лорд Блэк, Джек Энджел, Боб Берген, Роджер Бампасс, Джино Конфорти, Дженнифер Дарлинг, Патти Дьютч, Пит Доктер

Описание: Правда ли, что все дети боятся разных чудищ? Одноглазые, мохнатые, восьминогие, щупальцеобразные, длинноногие гиганты могут действительно представлять угрозу? Бросьте, эти создания не такие уж страшные. Они тоже переживают за свое существование, даже придумали уникальный способ добычи электричества. Человеческий мир по ту сторону двери это не зло - дети не дадут соврать! Одна лишь малышка заставила Лучшего страшителя Монстрополиса улыбаться, пробудила в нем искренность и подружилась.

Качество: UHD BDRemux 2160p
Формат: MKV

Видео: 3840x2160 at 23.976 fps, MPEG-H HEVC HDR Video, 48900 kbps avg
Аудио #01: 48 kHz, AC3, 5.1, 640 Kbps | Дублированный | RUS |
Аудио #02: 48 kHz, TrueHD, 7.1, 6905 Kbps | Оригинал | ENG |
Аудио #03: 48 kHz, AC3, 5.1, 640 Kbps | Оригинал | ENG |
скриншот  скриншот  скриншот  скриншот  скриншот  

General
Unique ID : 189696155921103480543460638526095301643 (0x8EB626946E0D0658CACFABED2DE11C0B)
Complete name : E:\Video111\Monsters.Inc.2001.BDREMUX.2160p.HDR.seleZen.mkv
Format : Matroska
Format version : Version 4
File size : 36.8 GiB
Duration : 1 h 32 min
Overall bit rate mode : Variable
Overall bit rate : 57.1 Mb/s
Movie name : Monsters, Inc. 2001 from селезень
Encoded date : UTC 2020-03-05 14:21:04
Writing application : mkvmerge v40.0.0 ('Old Town Road + Pony') 64-bit
Writing library : libebml v1.3.9 + libmatroska v1.5.2

Video
ID : 1
Format : HEVC
Format/Info : High Efficiency Video Coding
Format profile : Main 10@L5.1@High
HDR format : SMPTE ST 2086, HDR10 compatible
Codec ID : V_MPEGH/ISO/HEVC
Duration : 1 h 32 min
Bit rate : 48.9 Mb/s
Width : 3 840 pixels
Height : 2 160 pixels
Display aspect ratio : 16:9
Frame rate mode : Constant
Frame rate : 23.976 (24000/1001) FPS
Color space : YUV
Chroma subsampling : 4:2:0 (Type 2)
Bit depth : 10 bits
Bits/(Pixel*Frame) : 0.246
Stream size : 31.5 GiB (86%)
Writing library : ATEME Titan File 3.9.0 (4.9.0.0)
Language : English
Default : Yes
Forced : No
Color range : Limited
Color primaries : BT.2020
Transfer characteristics : PQ
Matrix coefficients : BT.2020 non-constant
Mastering display color pri: Display P3
Mastering display luminance: min: 0.0000 cd/m2, max: 1000 cd/m2

Audio #1
ID : 2
Format : AC-3
Format/Info : Audio Coding 3
Commercial name : Dolby Digital
Codec ID : A_AC3
Duration : 1 h 32 min
Bit rate mode : Constant
Bit rate : 640 kb/s
Channel(s) : 6 channels
Channel layout : L R C LFE Ls Rs
Sampling rate : 48.0 kHz
Frame rate : 31.250 FPS (1536 SPF)
Compression mode : Lossy
Stream size : 422 MiB (1%)
Title : Dub [License]
Language : Russian
Service kind : Complete Main
Default : Yes
Forced : Yes

Audio #2
ID : 3
Format : MLP FBA 16-ch
Format/Info : Meridian Lossless Packing FBA with 16-channel presentation
Commercial name : Dolby TrueHD with Dolby Atmos
Codec ID : A_TRUEHD
Duration : 1 h 32 min
Bit rate mode : Variable
Bit rate : 6 905 kb/s
Maximum bit rate : 8 211 kb/s
Channel(s) : 8 channels
Channel layout : L R C LFE Ls Rs Lb Rb
Sampling rate : 48.0 kHz
Frame rate : 1 200.000 FPS (40 SPF)
Compression mode : Lossless
Stream size : 4.45 GiB (12%)
Title : Original
Language : English
Default : No
Forced : No
Number of dynamic objects : 13
Bed channel count : 1 channel
Bed channel configuration : LFE

Audio #3
ID : 4
Format : AC-3
Format/Info : Audio Coding 3
Commercial name : Dolby Digital
Codec ID : A_AC3
Duration : 1 h 32 min
Bit rate mode : Constant
Bit rate : 640 kb/s
Channel(s) : 6 channels
Channel layout : L R C LFE Ls Rs
Sampling rate : 48.0 kHz
Frame rate : 31.250 FPS (1536 SPF)
Compression mode : Lossy
Stream size : 422 MiB (1%)
Language : English
Service kind : Complete Main
Default : No
Forced : No

Text #1
ID : 5
Format : UTF-8
Codec ID : S_TEXT/UTF8
Codec ID/Info : UTF-8 Plain Text
Duration : 1 h 15 min
Bit rate : 0 b/s
Count of elements : 4
Stream size : 220 Bytes (0%)
Title : Forced
Language : Russian
Default : Yes
Forced : Yes

Text #2
ID : 6
Format : UTF-8
Codec ID : S_TEXT/UTF8
Codec ID/Info : UTF-8 Plain Text
Duration : 1 h 24 min
Bit rate : 75 b/s
Count of elements : 989
Stream size : 46.8 KiB (0%)
Title : Full [Blu-Ray CEE]
Language : Russian
Default : No
Forced : No

Text #3
ID : 7
Format : UTF-8
Codec ID : S_TEXT/UTF8
Codec ID/Info : UTF-8 Plain Text
Duration : 1 h 24 min
Bit rate : 90 b/s
Count of elements : 986
Stream size : 55.8 KiB (0%)
Title : Full [R5]
Language : Russian
Default : No
Forced : No

Text #4
ID : 8
Format : UTF-8
Codec ID : S_TEXT/UTF8
Codec ID/Info : UTF-8 Plain Text
Duration : 1 h 23 min
Bit rate : 85 b/s
Count of elements : 1654
Stream size : 52.3 KiB (0%)
Title : Full [Cinemania]
Language : Russian
Default : No
Forced : No

Text #5
ID : 9
Format : UTF-8
Codec ID : S_TEXT/UTF8
Codec ID/Info : UTF-8 Plain Text
Duration : 1 h 24 min
Bit rate : 101 b/s
Count of elements : 996
Stream size : 62.8 KiB (0%)
Title : Full [Nevafilm]
Language : Russian
Default : No
Forced : No

Text #6
ID : 10
Format : UTF-8
Codec ID : S_TEXT/UTF8
Codec ID/Info : UTF-8 Plain Text
Duration : 1 h 23 min
Bit rate : 61 b/s
Count of elements : 1094
Stream size : 37.3 KiB (0%)
Title : Full
Language : English
Default : No
Forced : No

Text #7
ID : 11
Format : UTF-8
Codec ID : S_TEXT/UTF8
Codec ID/Info : UTF-8 Plain Text
Duration : 1 h 27 min
Bit rate : 83 b/s
Count of elements : 2377
Stream size : 53.6 KiB (0%)
Title : SDH
Language : English
Default : No
Forced : No

Text #8
ID : 12
Format : UTF-8
Codec ID : S_TEXT/UTF8
Codec ID/Info : UTF-8 Plain Text
Duration : 1 h 27 min
Bit rate : 110 b/s
Count of elements : 2378
Stream size : 70.6 KiB (0%)
Title : SDH Colored
Language : English
Default : No
Forced : No

Menu
00:00:00.000 : en:Глава 01
00:01:33.760 : en:Глава 02
00:03:08.271 : en:Глава 03
00:04:51.791 : en:Глава 04
00:07:17.604 : en:Глава 05
00:09:12.177 : en:Глава 06
00:10:44.269 : en:Глава 07
00:11:54.464 : en:Глава 08
00:17:26.462 : en:Глава 09
00:20:06.747 : en:Глава 10
00:22:04.448 : en:Глава 11
00:25:49.089 : en:Глава 12
00:28:35.630 : en:Глава 13
00:31:07.157 : en:Глава 14
00:34:50.630 : en:Глава 15
00:36:56.297 : en:Глава 16
00:38:50.953 : en:Глава 17
00:40:28.551 : en:Глава 18
00:43:34.945 : en:Глава 19
00:45:30.394 : en:Глава 20
00:48:08.093 : en:Глава 21
00:50:37.826 : en:Глава 22
00:54:41.945 : en:Глава 23
00:57:30.113 : en:Глава 24
01:03:42.694 : en:Глава 25
01:06:25.690 : en:Глава 26
01:07:27.043 : en:Глава 27
01:13:52.803 : en:Глава 28
01:17:50.249 : en:Глава 29
01:21:25.589 : en:Глава 30
01:24:08.627 : en:Глава 31
01:25:06.893 : en:Глава 32

pb.wtf



Скачать Корпорация Монстров через торрент https://img10.lostpic.net/2020/03/05/31ce2206508d82f85b70928568b751fd.jpg Скачать фильм Корпорация Монстров через торрент бесплантно в хорошем качестве Описание: Правда ли, что все дети боятся разных чудищ? Одноглазые, мохнатые, восьминогие, щупальцеобразные, длинноногие гиганты могут ... 10 10 2
Торрент: Зарегистрирован [2020-03-05 15:28] · скачан: 22 раз
Статус: √ проверено
Размер: 36.77 GB
Как cкачать? Как скачать Корпорация Монстров через торрент | qTorrent

% Раздел Тема Автор DL S | L
Зарубежные Мультфильмы (BDRip 1080p, 720p, Blu-ray, BD-Remux) [ 5.69 GB ] Корпорация монстров / Monsters Inc. [2001 мультфильм BDRip 1080p HEVC ()] Мичман37 Скачать
1 | 0
Зарубежные Мультфильмы (BDRip 1080p, 720p, Blu-ray, BD-Remux) [ 4.29 GB ] Корпорация монстров / Monsters Inc [2001 мультфильм BDRip 1080p DUB + + Оригинал ] slaventi-69 Скачать
1 | 0
Зарубежные Мультфильмы (BDRip 1080p, 720p, Blu-ray, BD-Remux) [ 5.64 GB ] Корпорация монстров / Monsters Inc. [Пит Доктер Дэвид Силверман Ли Анкрич] [2001 BDRip 720p] Romeo0502 Скачать
1 | 0
Зарубежные Мультфильмы (BDRip 1080p, 720p, Blu-ray, BD-Remux) [ 7.34 GB ] Корпорация монстров / Monsters Inc [2001 мультфильм BDRip ] PARKAN05 Скачать
1 | 0
Мультфильмы (48-60 fps) [ 4.01 GB ] Корпорация монстров / Monsters Inc [2001 мультфильм BDRip 720pDUB] 60fps от R.G. HD-Films slaventi-69 Скачать
2 | 0
Иностранные мультфильмы [ 2.91 GB ] Корпорация монстров и Университет монстров / Monsters Inc. and Monsters University [2001 2013 мультфильм HDRip-AVC] DUB [] от R.G. PiratFilms Demonessa Скачать
1 | 0
3D Мультфильмы [ 6 GB ] Корпорация монстров в 3D / Monsters Inc. in 3D [2001 мультфильм BDRip 1080p] Anaglyph slaventi-69 Скачать
1 | 0

28-11-2019 20:33  

Отключить всю рекламу на сайте

    Дорогой пользователь! Огромная просьба, поблагодарите релизера, оцените раздачу и оставьте свои комментарий, если Вы скачали Корпорация Монстров через торрент бесплатно! Внесите свою лепту в развитие PiratBit!
    Комментировать посты могут только пользователи прошедшие не сложную регистрацию
    Показать сообщения:    

    Корпорация Монстров через торрент
    Скачать бесплатно Корпорация Монстров
    Корпорация Монстров скачать торрент
    Корпорация Монстров смотреть онлайн
    Cкачать фильм Корпорация Монстров бесплатно
    Корпорация Монстров скачать торрент в хорошем качестве
    Корпорация Монстров смотреть онлайн бесплатно в хорошем качестве


    Вы не можете начинать темы
    Вы не можете отвечать на сообщения
    Вы не можете редактировать свои сообщения
    Вы не можете удалять свои сообщения
    Вы не можете голосовать в опросах
    Вы не можете прикреплять файлы к сообщениям
    Вы можете скачивать файлы