Ссылка на приватное зеркало нашего сайта всего за 1$. Внимание количество ограничено!!!

2 сезон

iTunes

1 сезон

1

2 сезон

2 сезон

iTunes

1 сезон

RePack

30

Новинка

ВАЖНО

ИГРА 18+

pack

RePack

MK11
pack

Забери бонус

RePack

jed

!!Акция!!

Alien_Rage

RePack

fifa19

RePack

Assassins Creed: Odyssey

RePack

NEED FOR SPEED™ PAYBACK

4 сезон

9 сезон

Бесстыжие 9 сезон

Все сериалы

все сериалы на PB.wtf

RePack

FAR CRY 5
  

Это пистолет у тебя в кармане? / Is That a Gun in Your Pocket? (Мэтт Купер) [2016 г., комедия, WEB-DL 1080p, Любительский (многоголосый)] [Синема УС] pb.wtf

Это пистолет у тебя в кармане? через торрент pb.wtf

Размер: 3.69 GB | Добавлен: 8 мес. назад | Торрент скачан:50 раз
Скачать  

06-03-2020 07:07 Это пистолет у тебя в кармане? Скачать торрент  

Это пистолет у тебя в кармане? /
Is That a Gun in Your Pocket?
Год выпуска: 2016
Страна: США
Жанр: комедия
Продолжительность: 01:37:41
Перевод: Любительский (многоголосый) (Синема УС)
Субтитры: отсутствуют

Режиссер: Мэтт Купер

Премьера в мире: 24 февраля 2016

rating

В ролях: Андреа Андерс, Мэтт Пассмор, Клорис Личмен, Кэтрин МакНамара, Джон Майкл Хиггинс, Оратио Санс, Лорен Боулз, Джон Хёрд, Кристин Эстабрук, Кевин Конуэй

Описание: Больше своих женщин мужчины Рокфорда, любили только свои пушки, пока один инцидент с применением оружия в окрестностях местной школы не заставил домохозяйку Дженну переосмыслить повсеместную одержимость оружием. К большому огорчению своего мужа, Дженна основывает движение против ношения оружия. Все члены движения должны воздерживаться от секса с их супругами до тех пор, пока в Рокфорде не будет сдан последний пистолет.

Доп. информация: Присутствуют аудио и видео вставки рекламы

Качество: WEB-DL 1080p
Формат: MKV
Видео кодек: H.264
Аудио кодек: AC3
Видео: AVC/H.264, 1916х1032 (1,85:1), ~5024 kbps, 0.106 bit/pixel
Аудио#1: AC3, 2 ch, 384 kbps
Релиз от: winchester00100010
Общее
Уникальный идентификатор : 236322064068882659694384248511238397967 (0xB1C9F956294635D0A6B57A2662CE600F)
Полное имя : C:\Мои раздачи фильмов сериалов\Is.That.a.Gun.in.Your.Pocket.2016.WEB-DL.1080p.mkv
Формат : Matroska
Версия формата : Version 2
Размер файла : 3,69 Гбайт
Продолжительность : 1 ч. 37 м.
Режим общего битрейта : Переменный
Общий поток : 5409 Кбит/сек
Дата кодирования : UTC 2017-04-04 12:27:40
Программа кодирования : mkvmerge v8.3.0 ('Over the Horizon') 64bit
Библиотека кодирования : libebml v1.3.1 + libmatroska v1.4.2

Видео
Идентификатор : 1
Формат : AVC
Формат/Информация : Advanced Video Codec
Профиль формата : High@L4
Настройки формата : CABAC / 4 Ref Frames
Параметр CABAC формата : Да
Параметр RefFrames формата : 4 кадра
Идентификатор кодека : V_MPEG4/ISO/AVC
Продолжительность : 1 ч. 37 м.
Вид битрейта : Переменный
Битрейт : 5024 Кбит/сек
Максимальный битрейт : 5500 Кбит/сек
Ширина : 1916 пикселей
Высота : 1032 пикселя
Соотношение сторон : 1,85:1
Режим частоты кадров : Постоянный
Частота кадров : 23,976 (24000/1001) кадра/сек
Стандарт вещания : Component
Цветовое пространство : YUV
Субдискретизация насыщенности : 4:2:0
Битовая глубина : 8 бит
Тип развёртки : Прогрессивная
Бит/(Пиксели*Кадры) : 0.106
Размер потока : 3,43 Гбайт (93%)
Default : Да
Forced : Нет
Цветовой диапазон : Limited
Основные цвета : BT.709
Характеристики трансфера : BT.709
Коэффициенты матрицы : BT.709

Аудио
Идентификатор : 2
Формат : AC-3
Формат/Информация : Audio Coding 3
Коммерческое название : Dolby Digital
Идентификатор кодека : A_AC3
Продолжительность : 1 ч. 37 м.
Вид битрейта : Постоянный
Битрейт : 384 Кбит/сек
Каналы : 2 канала
ChannelLayout : L R
Частота : 48,0 КГц
Частота кадров : 31,250 кадров/сек (1536 SPF)
Метод сжатия : С потерями
Размер потока : 268 Мбайт (7%)
ServiceKind/String : Complete Main
Default : Да
Forced : Нет

pb.wtf



Скачать Это пистолет у тебя в кармане? через торрент https://b.radikal.ru/b40/2003/3f/75055463ab3d.jpg Скачать фильм Это пистолет у тебя в кармане? через торрент бесплантно в хорошем качестве Описание: Больше своих женщин мужчины Рокфорда, любили только свои пушки, пока один инцидент с применением оружия в окрестностях местной ... 10 10 1
Торрент: Зарегистрирован [2020-03-06 07:07] · скачан: 50 раз
Статус: T временная
Размер: 3.69 GB
Как cкачать? Как скачать Это пистолет у тебя в кармане? через торрент | qTorrent

28-11-2019 20:33  

Отключить всю рекламу на сайте

06-03-2020 07:27 Это пистолет у тебя в кармане? Скачать торрент  

    Дорогой пользователь! Огромная просьба, поблагодарите релизера, оцените раздачу и оставьте свои комментарий, если Вы скачали Это пистолет у тебя в кармане? через торрент бесплатно! Внесите свою лепту в развитие PiratBit!
    Комментировать посты могут только пользователи прошедшие не сложную регистрацию
    Показать сообщения:    

    Это пистолет у тебя в кармане? через торрент
    Скачать бесплатно Это пистолет у тебя в кармане?
    Это пистолет у тебя в кармане? скачать торрент
    Это пистолет у тебя в кармане? смотреть онлайн
    Cкачать фильм Это пистолет у тебя в кармане? бесплатно
    Это пистолет у тебя в кармане? скачать торрент в хорошем качестве
    Это пистолет у тебя в кармане? смотреть онлайн бесплатно в хорошем качестве


    Вы не можете начинать темы
    Вы не можете отвечать на сообщения
    Вы не можете редактировать свои сообщения
    Вы не можете удалять свои сообщения
    Вы не можете голосовать в опросах
    Вы не можете прикреплять файлы к сообщениям
    Вы можете скачивать файлы