2 сезон

iTunes

MVO

1

2 сезон

iTunes

1 сезон

1 сезон

RePack

30

Новинка

ВАЖНО

ИГРА 18+

pack

RePack

MK11
pack

Легкие деньги

RePack

jed

RePack

fifa19

RePack

RDR2

RePack

NEED FOR SPEED™ PAYBACK

4 сезон

9 сезон

Бесстыжие 9 сезон

Все сериалы

все сериалы на PB.wtf

RePack

FAR CRY 5

Anonymous, добрый день, мы не успеваем собрать деньги на оплату серверов за декабрь и январь, помогите нам пожалуйста в это трудное время. В качестве благодарности мы отключим Вам всю рекламу на сайте (укажите свой ник в строку Ваше имя)!

×
  
Magnet ссылка

Чёрное Рождество / Black Christmas (Софи Такал) [2019, Ужасы, триллер, детектив, BDRip 1080p] DUB [Лицензия] pb.wtf

Чёрное Рождество через торрент pb.wtf

Размер: 11.31 GB | Добавлен: 9 мес. назад | Торрент скачан:48 раз
Скачать  

06-03-2020 16:47 Чёрное Рождество Скачать торрент  

Чёрное Рождество | Black Christmas
Год выпуска: 2019
Страна: США, Новая Зеландия
Жанр: Ужасы, триллер, детектив
Продолжительность: 01:32:09
Перевод: Дублированный | Лицензия
Субтитры: Русские (Forced, full), английские

Режиссер: Софи Такал

rating

В ролях: Имоджен Путс, Ализ Шэннон, Лили Донохью, Бриттани О’Грэйди, Калеб Эберхардт, Кэри Элвес, Саймон Мид, Мадлен Адамс, Натали Моррис, Бен Блэк

Описание: Фильм является ремейком культового хоррора 1974 года. Рождественские каникулы не сулят ничего иного кроме как веселья, однако не в этот раз. В женском кампусе колледжа в Хортоне начинает орудовать серийный маньяк. Одну за одной он убивает молодых студенток, и среди выживших начинается настоящая битва за выживание.

Качество: BDRip 1080p
Формат: MKV

Видео: MPEG-4 AVC, 1920x804, 15.7 Mbit/s, 23.976 fps
Аудио #01: 48 kHz, DTS, 5.1, 768 Kbps | Лицензия | RUS |
Аудио #02: 48 kHz, AC3, 5.1, 448 Kbps | Лицензия | RUS |
Аудио #03: 48 kHz, AC3, 5.1, 640 Kbps | Оригинал | ENG |
скриншот  скриншот  скриншот  скриншот  скриншот  

General
Unique ID : 289424594591027087260369496499287384040 (0xD9BD263AEAB57C8129F960A47EB65FE8)
Complete name : E:Video111Black.Christmas.2019.Lic.BDRip.1080p.seleZen.mkv
Format : Matroska
Format version : Version 4
File size : 11.3 GiB
Duration : 1 h 32 min
Overall bit rate : 17.6 Mb/s
Movie name : Black Christmas 2019 from селезень
Encoded date : UTC 2020-04-12 15:11:32
Writing application : mkvmerge v40.0.0 ('Old Town Road + Pony') 64-bit
Writing library : libebml v1.3.9 + libmatroska v1.5.2

Video
ID : 1
Format : AVC
Format/Info : Advanced Video Codec
Format profile : High@L4.1
Format settings : CABAC / 4 Ref Frames
Format settings, CABAC : Yes
Format settings, Reference : 4 frames
Codec ID : V_MPEG4/ISO/AVC
Duration : 1 h 32 min
Bit rate : 15.7 Mb/s
Width : 1 920 pixels
Height : 804 pixels
Display aspect ratio : 2.40:1
Frame rate mode : Constant
Frame rate : 23.976 (24000/1001) FPS
Color space : YUV
Chroma subsampling : 4:2:0
Bit depth : 8 bits
Scan type : Progressive
Bits/(Pixel*Frame) : 0.425
Stream size : 10.1 GiB (89%)
Title : CHD
Writing library : x264 core 157 r2867+150 7e91e0e t_mod_Custom_2 [8-bit@all X86_64]
Encoding settings : cabac=1 / ref=4 / deblock=1:-3:-3 / analyse=0x3:0x133 / me=umh / subme=11 / psy=1 / fade_compensate=0.00 / psy_rd=0.90:0.10 / mixed_ref=1 / me_range=64 / chroma_me=1 / trellis=2 / 8x8dct=1 / cqm=0 / deadzone=21,11 / fast_pskip=0 / chroma_qp_offset=-4 / threads=25 / lookahead_threads=4 / sliced_threads=0 / nr=0 / decimate=1 / interlaced=0 / bluray_compat=0 / constrained_intra=0 / fgo=0 / bframes=8 / b_pyramid=2 / b_adapt=2 / b_bias=0 / direct=3 / weightb=1 / open_gop=0 / weightp=2 / keyint=250 / keyint_min=23 / scenecut=40 / intra_refresh=0 / rc_lookahead=60 / rc=crf / mbtree=0 / crf=18.0000 / qcomp=0.70 / qpmin=0:0:0 / qpmax=69:69:69 / qpstep=4 / vbv_maxrate=35000 / vbv_bufsize=35000 / crf_max=0.0 / nal_hrd=none / filler=0 / ip_ratio=1.40 / pb_ratio=1.30 / aq=3:1.00 / aq-sensitivity=10.00 / aq-factor=1.00:1.00:1.00 / aq2=0 / aq3=0
Language : English
Default : Yes
Forced : No

Audio #1
ID : 2
Format : DTS
Format/Info : Digital Theater Systems
Codec ID : A_DTS
Duration : 1 h 32 min
Bit rate mode : Constant
Bit rate : 768 kb/s
Channel(s) : 6 channels
Channel layout : C L R Ls Rs LFE
Sampling rate : 48.0 kHz
Frame rate : 93.750 FPS (512 SPF)
Bit depth : 24 bits
Compression mode : Lossy
Stream size : 506 MiB (4%)
Title : Dub [Lic]
Language : Russian
Default : Yes
Forced : Yes

Audio #2
ID : 3
Format : AC-3
Format/Info : Audio Coding 3
Commercial name : Dolby Digital
Codec ID : A_AC3
Duration : 1 h 32 min
Bit rate mode : Constant
Bit rate : 448 kb/s
Channel(s) : 6 channels
Channel layout : L R C LFE Ls Rs
Sampling rate : 48.0 kHz
Frame rate : 31.250 FPS (1536 SPF)
Compression mode : Lossy
Stream size : 295 MiB (3%)
Title : Dub [Lic]
Language : Russian
Service kind : Complete Main
Default : No
Forced : No

Audio #3
ID : 4
Format : AC-3
Format/Info : Audio Coding 3
Commercial name : Dolby Digital
Codec ID : A_AC3
Duration : 1 h 32 min
Bit rate mode : Constant
Bit rate : 640 kb/s
Channel(s) : 6 channels
Channel layout : L R C LFE Ls Rs
Sampling rate : 48.0 kHz
Frame rate : 31.250 FPS (1536 SPF)
Compression mode : Lossy
Stream size : 422 MiB (4%)
Title : Original
Language : English
Service kind : Complete Main
Default : No
Forced : No

Text #1
ID : 5
Format : UTF-8
Codec ID : S_TEXT/UTF8
Codec ID/Info : UTF-8 Plain Text
Duration : 6 min 3 s
Bit rate : 9 b/s
Count of elements : 6
Stream size : 441 Bytes (0%)
Title : Forced
Language : Russian
Default : Yes
Forced : Yes

Text #2
ID : 6
Format : UTF-8
Codec ID : S_TEXT/UTF8
Codec ID/Info : UTF-8 Plain Text
Duration : 1 h 27 min
Bit rate : 86 b/s
Count of elements : 1094
Stream size : 55.4 KiB (0%)
Title : Full
Language : Russian
Default : No
Forced : No

Text #3
ID : 7
Format : UTF-8
Codec ID : S_TEXT/UTF8
Codec ID/Info : UTF-8 Plain Text
Duration : 1 h 26 min
Bit rate : 59 b/s
Count of elements : 1266
Stream size : 37.5 KiB (0%)
Title : Full
Language : English
Default : No
Forced : No

Menu
00:00:00.000 : en:Chapters01
00:06:54.247 : en:Chapters02
00:11:31.691 : en:Chapters03
00:13:54.208 : en:Chapters04
00:18:01.080 : en:Chapters05
00:23:23.652 : en:Chapters06
00:28:21.116 : en:Chapters07
00:33:51.488 : en:Chapters08
00:37:07.517 : en:Chapters09
00:41:20.436 : en:Chapters10
00:47:05.656 : en:Chapters11
00:53:29.832 : en:Chapters12
00:58:13.448 : en:Chapters13
01:03:12.664 : en:Chapters14
01:06:28.443 : en:Chapters15
01:10:02.573 : en:Chapters16
01:14:34.053 : en:Chapters17
01:19:08.035 : en:Chapters18
01:21:26.507 : en:Chapters19
01:26:14.795 : en:Chapters20

pb.wtf



Скачать Чёрное Рождество через торрент https://img10.lostpic.net/2020/03/06/2a82f143165062f9fcb9670d8415b767.jpg Скачать фильм Чёрное Рождество через торрент бесплантно в хорошем качестве Описание: Фильм является ремейком культового хоррора 1974 года. Рождественские каникулы не сулят ничего иного кроме как веселья, однако не ... 8 10 9
Торрент: Зарегистрирован [2020-04-12 16:32] · скачан: 48 раз
Статус: √ проверено
Размер: 11.31 GB
Как cкачать? Как скачать Чёрное Рождество через торрент | UTorrent

% Раздел Тема Автор DL S | L
Фильмы 2019-2020 [DVDrip, WEB-DLRip, HDrip] (DUB, MVO) [ 1.46 GB ] Чёрное Рождество / Black Christmas [2019 BDRip] - [] Twi7ter Скачать
6 | 0
Фильмы (Blu-ray, BD-Remux, HDDVD) [ 34.34 GB ] Чёрное Рождество / Black Christmas [2019 Blu-ray EUR 1080p] DUB [] bober100 Скачать
1 | 0
Фильмы 2019-2020 [DVDrip, WEB-DLRip, HDrip] (DUB, MVO) [ 1.46 GB ] Чёрное Рождество / Black Christmas [2019 BDRip] DUB [ Blu-ray EUR] bober100 Скачать
1 | 0
Фильмы (WEB-DL 720p, 1080p) [ 3.14 GB ] Чёрное Рождество / Black Christmas [2019 WEB-DL 720p] bober100 Скачать
1 | 0
Фильмы 2019-2020 [DVDrip, WEB-DLRip, HDrip] (DUB, MVO) [ 748 MB ] Чёрное Рождество / Black Christmas [2019 HDRip] DUB [] bober100 Скачать
1 | 0
Фильмы (WEB-DL 720p, 1080p) [ 3.47 GB ] Чёрное Рождество / Black Christmas [2019 WEB-DL 1080p] bober100 Скачать
2 | 0
Фильмы [HD 720p, 1080p] (Хороший звук DUB, MVO) [ 10.55 GB ] Чёрное Рождество / Black Christmas [1974 BDRip 1080p by msltel] DVO 2 x AVO msltel Скачать
1 | 0

28-11-2019 20:33  

Отключить всю рекламу на сайте

    Дорогой пользователь! Огромная просьба, поблагодарите релизера, оцените раздачу и оставьте свои комментарий, если Вы скачали Чёрное Рождество через торрент бесплатно! Внесите свою лепту в развитие PiratBit!
    Комментировать посты могут только пользователи прошедшие не сложную регистрацию
    Показать сообщения:    

    Чёрное Рождество через торрент
    Скачать бесплатно Чёрное Рождество
    Чёрное Рождество скачать торрент
    Чёрное Рождество смотреть онлайн
    Cкачать фильм Чёрное Рождество бесплатно
    Чёрное Рождество скачать торрент в хорошем качестве
    Чёрное Рождество смотреть онлайн бесплатно в хорошем качестве


    Вы не можете начинать темы
    Вы не можете отвечать на сообщения
    Вы не можете редактировать свои сообщения
    Вы не можете удалять свои сообщения
    Вы не можете голосовать в опросах
    Вы не можете прикреплять файлы к сообщениям
    Вы можете скачивать файлы