Ссылка на приватное зеркало нашего сайта всего за 1$. Внимание количество ограничено!!!

2 сезон

iTunes

1 сезон

1

iTunes

iTunes

iTunes

1 сезон

RePack

30

ИГРА 18+

pack

ВАЖНО

!!Акция!!

Alien_RageХит недели

RePack

MK11
pack

Забери бонус

RePack

jed

!!Акция!!

Alien_Rage

RePack

fifa19

RePack

Assassins Creed: Odyssey

RePack

NEED FOR SPEED™ PAYBACK

4 сезон

9 сезон

Бесстыжие 9 сезон

Все сериалы

все сериалы на PB.wtf

RePack

FAR CRY 5
  

Артист / Сезон: 1 / Серии: 1-8 из 8 (Анатолий Матешко) [2019, Комедия, мелодрама, WEB-DLRip] pb.wtf

Артист через торрент pb.wtf

Размер: 4.59 GB | Добавлен: 7 мес. назад | Торрент скачан:32 раза
Скачать  

07-03-2020 03:55 Артист Скачать торрент  

Артист Год выпуска: 2019
Страна: Украина
Жанр: Комедия, мелодрама
Продолжительность: ~ 00:46:00 серия
Перевод: Не требуется
Субтитры: отсутствуют

Режиссер: Анатолий Матешко



В ролях: Михаил Гаврилов (II), Евгения Лоза, Анатолий Матешко, Ирина Новак, Иван Залусский, Александр Пожарский, Александр Ганноченко, Константин Данилюк

Описание: Актёр Максим Нестеренко играет ментов и копов в сериалах. Он вечно на вторых ролях, берётся за любой проект, лишь бы срубить какие-то деньги, и знает, что выше головы ему уже не прыгнуть. С личной жизнью у Макса тоже не очень. Он в разводе с бывшей женой Мариной, а теперь еще его нынешняя девушка – «восходящая звезда» Снежана изменила ему с лучшим другом. В довершение всех неудач Макс проиграл «серьезному человеку» Игорю Балоге большую сумму денег в карты и еще остался должен. Балога обещает простить Максиму долг, если тот выполнит его поручение, а именно – отвезет некий кейс в город Каменск...

Качество: WEB-DLRip
Формат: AVI

Видео: XviD, ~ 1600 Кбит/с, 720х400 , 25 кадр/с
Аудио: AC3, 2 ch, 192 Кбит/с
скриншот  скриншот  скриншот  скриншот  скриншот  

General
Complete name : H:\fiiles x\Артист.2019.WEB-DLRip. Files-x\05.Артист.2019.WEB-DLRip. Files-x..avi
Format : AVI
Format/Info : Audio Video Interleave
File size : 591 MiB
Duration : 45mn 51s
Overall bit rate : 1 801 Kbps
Writing application : VirtualDubMod 1.5.10.3 | www.virtualdub-fr.org || (build 2550/release)
Writing library : VirtualDubMod build 2550/release

Video
ID : 0
Format : MPEG-4 Visual
Format profile : Advanced Simple@L5
Format settings, BVOP : 1
Format settings, QPel : No
Format settings, GMC : No warppoints
Format settings, Matrix : Custom
Codec ID : XVID
Codec ID/Hint : XviD
Duration : 45mn 51s
Bit rate : 1 600 Kbps
Width : 720 pixels
Height : 400 pixels
Display aspect ratio : 16:9
Frame rate : 25.000 fps
Color space : YUV
Chroma subsampling : 4:2:0
Bit depth : 8 bits
Scan type : Progressive
Compression mode : Lossy
Bits/(Pixel*Frame) : 0.222
Stream size : 525 MiB (89%)
Writing library : XviD 73

Audio
ID : 1
Format : AC-3
Format/Info : Audio Coding 3
Mode extension : CM (complete main)
Codec ID : 2000
Duration : 45mn 51s
Bit rate mode : Constant
Bit rate : 192 Kbps
Channel(s) : 2 channels
Channel positions : Front: L R
Sampling rate : 48.0 KHz
Bit depth : 16 bits
Compression mode : Lossy
Stream size : 63.0 MiB (11%)
Alignment : Split accross interleaves
Interleave, duration : 40 ms (1.00 video frame)
Interleave, preload duration : 500 ms

pb.wtf



Скачать Артист через торрент https://i110.fastpic.ru/big/2019/0409/1d/56ef968adf60d50695754b87ad0b3d1d.jpg Скачать фильм Артист через торрент бесплантно в хорошем качестве Описание: Актёр Максим Нестеренко играет ментов и копов в сериалах. Он вечно на вторых ролях, берётся за любой проект, лишь бы срубить ... 9.7 10 6
Торрент: Зарегистрирован [2020-03-07 03:55] · скачан: 32 раз
Статус: √ проверено
Размер: 4.59 GB
Как cкачать? Как скачать Артист через торрент | qTorrent

% Раздел Тема Автор DL S | L
Наши сериалы [ 4.57 GB ] Артист / Сезон: 1 / Серии: 1-8 из 8 [2019 WEB-DLRip-AVC] bober100 Скачать
2 | 0

28-11-2019 20:33  

Отключить всю рекламу на сайте

    Дорогой пользователь! Огромная просьба, поблагодарите релизера, оцените раздачу и оставьте свои комментарий, если Вы скачали Артист через торрент бесплатно! Внесите свою лепту в развитие PiratBit!
    Комментировать посты могут только пользователи прошедшие не сложную регистрацию
    Показать сообщения:    

    Артист через торрент
    Скачать бесплатно Артист
    Артист скачать торрент
    Артист смотреть онлайн
    Cкачать фильм Артист бесплатно
    Артист скачать торрент в хорошем качестве
    Артист смотреть онлайн бесплатно в хорошем качестве


    Вы не можете начинать темы
    Вы не можете отвечать на сообщения
    Вы не можете редактировать свои сообщения
    Вы не можете удалять свои сообщения
    Вы не можете голосовать в опросах
    Вы не можете прикреплять файлы к сообщениям
    Вы можете скачивать файлы