Ссылка на приватное зеркало нашего сайта всего за 1$. Внимание количество ограничено!!!

2 сезон

iTunes

1 сезон

1

2 сезон

2 сезон

iTunes

1 сезон

RePack

30

Ultimate

ВАЖНО

ИГРА 18+

pack

RePack

MK11
pack

Забери бонус

RePack

jed

!!Акция!!

Alien_Rage

RePack

fifa19

RePack

Assassins Creed: Odyssey

RePack

NEED FOR SPEED™ PAYBACK

4 сезон

9 сезон

Бесстыжие 9 сезон

Все сериалы

все сериалы на PB.wtf

RePack

FAR CRY 5
  

Вверх в 3Д / Up 3D (Пит Доктер, Боб Питерсон / Pete Docter, Bob Peterson) [2009, драма, комедия, приключения, семейный, BDRip, 1080p] OverUnder / Вертикальная стереопара (лицензия) pb.wtf

Вверх в 3Д через торрент pb.wtf

Размер: 15.36 GB | Добавлен: 8 мес. назад | Торрент скачан:16 раз
Скачать  

07-03-2020 06:06 Вверх в 3Д Скачать торрент  

Вверх / Up

Год выпуска: 2009
Страна: США(Pixar Animation Studios, Walt Disney Pictures)
Жанр: драма, комедия, приключения, семейный
Продолжительность: 01:36:04

Перевод: Профессиональный дублированный(лицензия)
Русские субтитры: нет
Режиссер: Пит Доктер, Боб Питерсон / Pete Docter, Bob Peterson

В ролях: Эдвард Эснер, Кристофер Пламмер, Джордан Нагаи, Боб Питерсон, Делрой Линдо, Джером Рэнфт, Джон Ратценбергер, Дэвид Кэй, Эли Доктер, Джереми Лири

Роли озвучивали: рмен Джигарханян, Дальвин Щербаков, Иван Чуваткин, Александр Стефанцов, Владимир Тягичев

Описание: 78-летний ворчун Карл Фредриксен считает, что жизнь обходит его стороной. Чтобы сдержать обещание, данное своей почившей жене, он решает осуществить свою мечту о великом приключении, привязав тысячи воздушных шариков к своему дому и улетев в дебри Южной Америки. Не пролетев и полмили, путешественник обнаруживает, что он ненароком прихватил с собой крайне разговорчивого и неисправимо жизнерадостного 8-летнего мальчика по имени Рассел…

Сэмпл: http://sendfile.su/1549343

Качество: BDrip, 1080p
Контейнер: MKV
Формат 3D: OverUnder / Вертикальная стереопара
Порядок ракурсов: левый ракурс первый
Видео кодек: x264
Аудио кодек: AC3
Видео: AVC / High@L5.0 / 23,976 fps / 1920х2160 / 21,3 Мбит/сек
Аудио: Русский / AC3 / 48 KHz / 5.1 ch / 448 Кбит/сек(лицензия)
Аудио 2: Английский / AC3 / 48 KHz / 5.1 ch / 640 Кбит/сек

ВНИМАНИЕ ! На встроенных ТВ-плеерах работать не будет!!!

ТВ Samsung в названии которого есть надпись Ultra HD , и LG Ultra HD 800 серии, LG C6P, Xiaomi Mi TV 2 воспроизводят полные стереопары встроенными плеерами
Железные плееры на которых воспроизводятся полные стереопары:Popcorn C-200 , Dune HD Smart D1 , Dune HD DUO , Dune HD Smart H1 , Dune HD Smart B1 , Dune HD Max , Dune HD TV-303D, Dune HD TV-102, Dune HD Base 3D, Philips HMP7001, Aura HD, MECOOL BB2, Zidoo x9s, Lake I Cloud, MiBox 3
Общее
Уникальный идентификатор : 192879266943571661892884283426823040919 (0x911B3211E95A8C9D8E697417B71D6F97)
Полное имя : E:\видео\Up.Rip by SeRoGa00.mkv
Формат : Matroska
Версия формата : Version 2
Размер файла : 15,4 Гбайт
Продолжительность : 1 ч. 36 м.
Общий поток : 22,9 Мбит/сек
Дата кодирования : UTC 2020-03-07 04:51:27
Программа кодирования : mkvmerge v3.4.0 ('Rapunzel') сборка от May 15 2010 09:38:20
Библиотека кодирования : libebml v0.8.0 + libmatroska v0.9.0

Видео
Идентификатор : 1
Формат : AVC
Формат/Информация : Advanced Video Codec
Профиль формата : High@L5.0
Параметр CABAC формата : Да
Параметр ReFrames формата : 4 кадра
Идентификатор кодека : V_MPEG4/ISO/AVC
Продолжительность : 1 ч. 36 м.
Битрейт : 21,3 Мбит/сек
Ширина : 1920 пикселей
Высота : 2160 пикселей
Соотношение сторон : 0,889
Частота кадров : 23,976 кадра/сек
Цветовое пространство : YUV
Субдискретизация насыщенности : 4:2:0
Битовая глубина : 8 бит
Тип развёртки : Прогрессивная
Бит/(Пиксели*Кадры) : 0.215
Размер потока : 14,3 Гбайт (93%)
Библиотека кодирования : x264 core 155 r2901 7d0ff22
Настройки программы : cabac=1 / ref=4 / deblock=1:-3:-3 / analyse=0x3:0x113 / me=umh / subme=10 / psy=1 / psy_rd=1.00:0.15 / mixed_ref=1 / me_range=24 / chroma_me=1 / trellis=2 / 8x8dct=1 / cqm=0 / deadzone=21,11 / fast_pskip=1 / chroma_qp_offset=-3 / threads=18 / lookahead_threads=6 / sliced_threads=0 / nr=0 / decimate=0 / interlaced=0 / bluray_compat=0 / constrained_intra=0 / bframes=10 / b_pyramid=2 / b_adapt=2 / b_bias=0 / direct=3 / weightb=1 / open_gop=0 / weightp=2 / keyint=250 / keyint_min=23 / scenecut=40 / intra_refresh=0 / rc_lookahead=60 / rc=crf / mbtree=1 / crf=16.5 / qcomp=0.60 / qpmin=10 / qpmax=69 / qpstep=4 / vbv_maxrate=40000 / vbv_bufsize=40000 / crf_max=0.0 / nal_hrd=none / filler=0 / ip_ratio=1.40 / aq=1:1.00
Язык : English
Default : Нет
Forced : Нет

Аудио #1
Идентификатор : 2
Формат : AC-3
Формат/Информация : Audio Coding 3
Расширение режима : CM (complete main)
Параметр Endianness формата : Big
Идентификатор кодека : A_AC3
Продолжительность : 1 ч. 36 м.
Вид битрейта : Постоянный
Битрейт : 448 Кбит/сек
Каналы : 6 каналов
Расположение каналов : Front: L C R, Side: L R, LFE
Частота : 48,0 КГц
Битовая глубина : 16 бит
Метод сжатия : С потерями
Размер потока : 308 Мбайт (2%)
Язык : Russian
Default : Да
Forced : Нет

Аудио #2
Идентификатор : 3
Формат : AC-3
Формат/Информация : Audio Coding 3
Расширение режима : CM (complete main)
Параметр Endianness формата : Big
Идентификатор кодека : A_AC3
Продолжительность : 1 ч. 36 м.
Вид битрейта : Постоянный
Битрейт : 640 Кбит/сек
Каналы : 6 каналов
Расположение каналов : Front: L C R, Side: L R, LFE
Частота : 48,0 КГц
Битовая глубина : 16 бит
Метод сжатия : С потерями
Размер потока : 440 Мбайт (3%)
Язык : English
Default : Нет
Forced : Нет

Меню
00:00:00.000 : en:(01)00:00:00:000
00:02:39.409 : en:(02)00:02:39:409
00:07:14.183 : en:(03)00:07:14:183
00:11:37.488 : en:(04)00:11:37:488
00:13:33.479 : en:(05)00:13:33:479
00:15:22.087 : en:(06)00:15:22:087
00:17:35.888 : en:(07)00:17:35:888
00:20:25.140 : en:(08)00:20:25:140
00:24:31.303 : en:(09)00:24:31:303
00:26:23.790 : en:(10)00:26:23:790
00:28:02.555 : en:(11)00:28:02:555
00:29:40.236 : en:(12)00:29:40:236
00:33:20.164 : en:(13)00:33:20:164
00:34:20.391 : en:(14)00:34:20:391
00:35:14.487 : en:(15)00:35:14:487
00:39:49.511 : en:(16)00:39:49:511
00:42:34.843 : en:(17)00:42:34:843
00:44:41.178 : en:(18)00:44:41:178
00:46:17.232 : en:(19)00:46:17:232
00:49:19.122 : en:(20)00:49:19:122
00:52:20.929 : en:(21)00:52:20:929
00:55:23.987 : en:(22)00:55:23:987
01:00:33.546 : en:(23)01:00:33:546
01:04:19.188 : en:(24)01:04:19:188
01:06:14.303 : en:(25)01:06:14:303
01:08:58.008 : en:(26)01:08:58:008
01:10:20.716 : en:(27)01:10:20:716
01:13:35.327 : en:(28)01:13:35:327
01:15:24.352 : en:(29)01:15:24:352
01:17:52.751 : en:(30)01:17:52:751
01:19:45.864 : en:(31)01:19:45:864
01:21:53.867 : en:(32)01:21:53:867
01:23:23.289 : en:(33)01:23:23:289
01:26:02.657 : en:(34)01:26:02:657
01:29:02.420 : en:(35)01:29:02:420
01:36:37.332 : en:(36)01:36:37:332
скриншот  

скриншот  

скриншот  

скриншот  

скриншот  

скриншот  
pb.wtf



Скачать Вверх в 3Д через торрент https://d.radikal.ru/d10/2003/ee/c54af3e12a4f.png Скачать фильм Вверх в 3Д через торрент бесплантно в хорошем качестве Описание: 78-летний ворчун Карл Фредриксен считает, что жизнь обходит его стороной. Чтобы сдержать обещание, данное своей почившей жене, он ... 5 10 1
Торрент: Зарегистрирован [2020-03-07 06:06] · скачан: 16 раз
Статус: √ проверено
Размер: 15.36 GB
Как cкачать? Как скачать Вверх в 3Д через торрент | qTorrent

28-11-2019 20:33  

Отключить всю рекламу на сайте

    Дорогой пользователь! Огромная просьба, поблагодарите релизера, оцените раздачу и оставьте свои комментарий, если Вы скачали Вверх в 3Д через торрент бесплатно! Внесите свою лепту в развитие PiratBit!
    Комментировать посты могут только пользователи прошедшие не сложную регистрацию
    Показать сообщения:    

    Вверх в 3Д через торрент
    Скачать бесплатно Вверх в 3Д
    Вверх в 3Д скачать торрент
    Вверх в 3Д смотреть онлайн
    Cкачать фильм Вверх в 3Д бесплатно
    Вверх в 3Д скачать торрент в хорошем качестве
    Вверх в 3Д смотреть онлайн бесплатно в хорошем качестве


    Вы не можете начинать темы
    Вы не можете отвечать на сообщения
    Вы не можете редактировать свои сообщения
    Вы не можете удалять свои сообщения
    Вы не можете голосовать в опросах
    Вы не можете прикреплять файлы к сообщениям
    Вы можете скачивать файлы