Ссылка на приватное зеркало нашего сайта всего за 1$. Внимание количество ограничено!!!

2 сезон

iTunes

1 сезон

1

2 сезон

2 сезон

iTunes

1 сезон

RePack

30

Новинка

ВАЖНО

ИГРА 18+

pack

RePack

MK11
pack

Забери бонус

RePack

jed

!!Акция!!

Alien_Rage

RePack

fifa19

RePack

Assassins Creed: Odyssey

RePack

NEED FOR SPEED™ PAYBACK

4 сезон

9 сезон

Бесстыжие 9 сезон

Все сериалы

все сериалы на PB.wtf

RePack

FAR CRY 5
  

Глотай / Swallow (Карло Мирабелла-Дэйвис) [2019, Триллер, драма, WEB-DL 1080p] DUB [iTunes] pb.wtf

Глотай через торрент pb.wtf

Раздают: 1 [ 0 KB/s ]
Размер: 5.71 GB | Добавлен: 8 мес. назад | Торрент скачан:159 раз
Скачать  

07-03-2020 16:28 Глотай Скачать торрент  

Глотай | Swallow
Год выпуска: 2019
Страна: Франция, США
Студия: Charades, Logical Pictures, Stand Alone Productions, Syncopated Films
Жанр: Триллер, драма
Продолжительность: 01:35:17
Перевод: Дублированный | iTunes
Субтитры: Русские (Full), английские (Full, SDH)

Режиссер: Карло Мирабелла-Дэйвис

rating

В ролях: Хейли Беннетт, Остин Стоуэлл, Дэнис О’Хэр, Элизабет Марвел, Дэвид Раш, Луна Лорен Велес, Забрина Гевара, Лэйт Накли, Бабак Тафти, Николь Кан

Описание: У молодой домохозяйки Хантер вроде бы всё хорошо - прекрасный дом, богатый муж, на работу ходить не нужно. Но когда женщина беременеет, и семейство окружает её удушающей заботой, она вдруг начинает находить странное утешение в глотании всяких неподходящих для этого предметов.

Качество: WEB-DL 1080p
Формат: MKV

Видео: MPEG-4 AVC, 1920x800, 7548 Kbps, 23.976 fps
Аудио#1: Russian: AC3, 6 ch, 384 kbps, 48.0 KHz - DUB, iTunes
Аудио#2: English: EAC3, 6 ch, 640 kbps, 48.0 KHz - Original
скриншот  скриншот  скриншот  скриншот  скриншот  

General
Unique ID : 284114679679094118580019250385145157989 (0xD5BE7F365F24513B626DD5ABA2ADD965)
Complete name : SWALLOW_2019_WEB-DL_1080p_2019_AMAZON-BLUEBIRD.mkv
Format : Matroska
Format version : Version 4 / Version 2
File size : 5.71 GiB
Duration : 1 h 35 min
Overall bit rate : 8 576 kb/s
Encoded date : UTC 2020-03-06 19:23:13
Writing application : mkvmerge v43.0.0 ('The Quartermaster') 64-bit
Writing library : libebml v1.3.10 + libmatroska v1.5.2
Cover : Yes
Attachments : cover.png

Video
ID : 1
Format : AVC
Format/Info : Advanced Video Codec
Format profile : High@L4
Format settings, CABAC : Yes
Format settings, RefFrames : 4 frames
Codec ID : V_MPEG4/ISO/AVC
Duration : 1 h 35 min
Bit rate mode : Constant
Bit rate : 7 548 kb/s
Nominal bit rate : 10 000 kb/s
Width : 1 920 pixels
Height : 800 pixels
Display aspect ratio : 2.40:1
Frame rate mode : Constant
Frame rate : 23.976 (24000/1001) FPS
Color space : YUV
Chroma subsampling : 4:2:0
Bit depth : 8 bits
Scan type : Progressive
Bits/(Pixel*Frame) : 0.205
Stream size : 5.02 GiB (88%)
Default : Yes
Forced : No
Color range : Limited
Color primaries : BT.709
Transfer characteristics : BT.709
Matrix coefficients : BT.709

Audio #1
ID : 2
Format : AC-3
Format/Info : Audio Coding 3
Format settings, Endianness : Big
Codec ID : A_AC3
Duration : 1 h 35 min
Bit rate mode : Constant
Bit rate : 384 kb/s
Channel(s) : 6 channels
Channel positions : Front: L C R, Side: L R, LFE
Sampling rate : 48.0 kHz
Frame rate : 31.250 FPS (1536 SPF)
Bit depth : 16 bits
Compression mode : Lossy
Stream size : 262 MiB (4%)
Title : [DUB] DD 5.1 @ 384 kbps (iTunes)
Language : Russian
Service kind : Complete Main
Default : Yes
Forced : No

Audio #2
ID : 3
Format : E-AC-3
Format/Info : Enhanced Audio Coding 3
Format settings, Endianness : Big
Codec ID : A_EAC3
Duration : 1 h 35 min
Bit rate mode : Constant
Bit rate : 640 kb/s
Channel(s) : 6 channels
Channel positions : Front: L C R, Side: L R, LFE
Sampling rate : 48.0 kHz
Frame rate : 187.500 FPS (256 SPF)
Compression mode : Lossy
Stream size : 436 MiB (7%)
Title : [ORIGINAL] DD+ 5.1 @ 640 kbps (Amazon)
Language : English
Service kind : Complete Main
Default : No
Forced : No

Text #1
ID : 4
Format : UTF-8
Codec ID : S_TEXT/UTF8
Codec ID/Info : UTF-8 Plain Text
Duration : 1 h 31 min
Bit rate : 37 b/s
Count of elements : 942
Stream size : 25.3 KiB (0%)
Title : Full-length
Language : English
Default : No
Forced : No

Text #2
ID : 5
Format : UTF-8
Codec ID : S_TEXT/UTF8
Codec ID/Info : UTF-8 Plain Text
Duration : 1 h 34 min
Bit rate : 40 b/s
Count of elements : 1113
Stream size : 27.7 KiB (0%)
Title : SDH
Language : English
Default : No
Forced : No

Text #3
ID : 6
Format : UTF-8
Codec ID : S_TEXT/UTF8
Codec ID/Info : UTF-8 Plain Text
Duration : 1 h 25 min
Bit rate : 55 b/s
Count of elements : 1025
Stream size : 34.9 KiB (0%)
Title : Full-length
Language : Russian
Default : No
Forced : No

pb.wtf



Скачать Глотай через торрент https://b.radikal.ru/b21/2003/33/5b5ebaef1eb1.png Скачать фильм Глотай через торрент бесплантно в хорошем качестве Описание: У молодой домохозяйки Хантер вроде бы всё хорошо - прекрасный дом, богатый муж, на работу ходить не нужно. Но когда женщина ... 10 10 6
Торрент: Зарегистрирован [2020-03-07 16:28] · скачан: 159 раз
Статус: √ проверено
Размер: 5.71 GB
Как cкачать? Как скачать Глотай через торрент | qTorrent

% Раздел Тема Автор DL S | L
Фильмы 2019-2020 [DVDrip, WEB-DLRip, HDrip] (DUB, MVO) [ 1.42 GB ] Глотай / Swallow [2019 BDRip] - Twi7ter Скачать
5 | 0
Фильмы [HD 720p, 1080p] (Хороший звук DUB, MVO) [ 10.39 GB ] Глотай / Swallow [2019 BDRip 1080p] bober100 Скачать
2 | 0
Фильмы (Blu-ray, BD-Remux, HDDVD) [ 25.35 GB ] Глотай / Swallow [2019 BD Remux 1080p] bober100 Скачать
1 | 0
Фильмы 2019-2020 [DVDrip, WEB-DLRip, HDrip] (DUB, MVO) [ 745 MB ] Глотай / Swallow [2019 HDRip] bober100 Скачать
1 | 0
Фильмы [HD 720p, 1080p] (Хороший звук DUB, MVO) [ 3.31 GB ] Глотай / Swallow [2019 BDRip 720p] bober100 Скачать
1 | 0
Порно фильмы без сюжета [ 1.79 GB ] Моя сводная сестра глотает 4 / My Step Sis Swallows 4 [2020 Teens Family Roleplay All sex SiteRip] Скорпион1976 Скачать
2 | 0
Фильмы 2019-2020 [DVDrip, WEB-DLRip, HDrip] (DUB, MVO) [ 1.45 GB ] Глотай / Swallow [2019 HDRip] bober100 Скачать
1 | 0

28-11-2019 20:33  

Отключить всю рекламу на сайте

08-03-2020 03:05 Глотай Скачать торрент  

"У молодой домохозяйки Хантер вроде бы всё хорошо - прекрасный дом, богатый муж, на работу ходить не нужно. Но когда женщина беременеет, и семейство окружает её удушающей заботой, она вдруг начинает находить странное утешение в глотании всяких неподходящих для этого предметов."

Какая животрепещущая проблема! Семейство окружает удушающей заботой! На работу ходить не надо, муж богатый!
От нехрена неделания, беззаботной жизни, катаясь как сыр в масле, (любой работяга, простой человек, мечтает о такой жизни) она вдруг начинает находить странное утешение в глотании всяких неподходящих для этого предметов... Вот это действительно проблема современного мира, да?
Вот пусть " " на работку, как обычные женщины, да беременные и вот с таким пузяком, идут и вкалывают с 8.00 до 20.00, и нет никаких мыслей о том, чем бы себя занять от нехеранеделания!pb.wtf



08-03-2020 05:17 Глотай Скачать торрент  

Название зачёт! pb.wtf



09-03-2020 17:23 Глотай Скачать торрент  

Palady писал(а):

"У молодой домохозяйки Хантер вроде бы всё хорошо - прекрасный дом, богатый муж, на работу ходить не нужно. Но когда женщина беременеет, и семейство окружает её удушающей заботой, она вдруг начинает находить странное утешение в глотании всяких неподходящих для этого предметов."

Какая животрепещущая проблема! Семейство окружает удушающей заботой! На работу ходить не надо, муж богатый!
От нехрена неделания, беззаботной жизни, катаясь как сыр в масле, (любой работяга, простой человек, мечтает о такой жизни) она вдруг начинает находить странное утешение в глотании всяких неподходящих для этого предметов... Вот это действительно проблема современного мира, да?
Вот пусть " " на работку, как обычные женщины, да беременные и вот с таким пузяком, идут и вкалывают с 8.00 до 20.00, и нет никаких мыслей о том, чем бы себя занять от нехеранеделания!

ваще согласенpb.wtf



13-03-2020 23:55 Глотай Скачать торрент  

это шиза такая, очень распространенная, бабы дома сидят и тупеют, при этом они это осознают и хотят хоть как-то это поменять. Как дети привлекают к себе внимание своими спорами, хулиганством, так и женщины творят всякую дичь лишь бы выйти за рамкиpb.wtf



    Дорогой пользователь! Огромная просьба, поблагодарите релизера, оцените раздачу и оставьте свои комментарий, если Вы скачали Глотай через торрент бесплатно! Внесите свою лепту в развитие PiratBit!
    Комментировать посты могут только пользователи прошедшие не сложную регистрацию
    Показать сообщения:    

    Глотай через торрент
    Скачать бесплатно Глотай
    Глотай скачать торрент
    Глотай смотреть онлайн
    Cкачать фильм Глотай бесплатно
    Глотай скачать торрент в хорошем качестве
    Глотай смотреть онлайн бесплатно в хорошем качестве


    Вы не можете начинать темы
    Вы не можете отвечать на сообщения
    Вы не можете редактировать свои сообщения
    Вы не можете удалять свои сообщения
    Вы не можете голосовать в опросах
    Вы не можете прикреплять файлы к сообщениям
    Вы можете скачивать файлы