Ссылка на приватное зеркало нашего сайта всего за 1$. Внимание количество ограничено!!!

2 сезон

iTunes

1 сезон

1

iTunes

iTunes

iTunes

1 сезон

RePack

30

ИГРА 18+

pack

ВАЖНО

!!Акция!!

Alien_RageХит недели

RePack

MK11
pack

Забери бонус

RePack

jed

!!Акция!!

Alien_Rage

RePack

fifa19

RePack

Assassins Creed: Odyssey

RePack

NEED FOR SPEED™ PAYBACK

4 сезон

9 сезон

Бесстыжие 9 сезон

Все сериалы

все сериалы на PB.wtf

RePack

FAR CRY 5
  

Окна на бульвар / Серии: 1-4 из 4 (Алексей Рудаков) [2020, Детектив, WEB-DLRip] pb.wtf

Окна на бульвар через торрент pb.wtf

Размер: 2.22 GB | Добавлен: 7 мес. назад | Торрент скачан:50 раз
Скачать  

08-03-2020 05:43 Окна на бульвар Скачать торрент  

Окна на бульвар
Год выпуска: 2020
Страна: Россия
Жанр: Детектив
Продолжительность: ~ 00:44:00 серия
Субтитры: отсутствуют

Режиссер: Алексей Рудаков



В ролях: Зоя Дамье, Дмитрий Пчела, Александр Носик, Руслан Ягудин, Евгений Дрёмин, София Умрилова, Юлия Силаева, Ирина Баринова, Елена Котельникова, Игорь Климов, Иван Рудаков, Юрий Осипов, Артём Кобзев, Юлия Стожарова, Екатерина Директоренко, Софья Терехова-Багратиони, Ольга Крылова (II), Ольга Журавлёва (IV), Анна Стурова

Описание: Квартира на Чистопрудном бульваре – это не просто дорого. Это – особая жизнь, полная воспоминаний, надежд, красоты и романтики. И эта жизнь кажется Александре совершенно естественной, ведь здесь она выросла. Но вот однажды на пороге возникают люди, которые говорят, что теперь ее квартира принадлежит другому человеку. Саше открывается горькая правда: пытаясь спасти свой бизнес, Дима заложил их дом под кредит, который так и не смог погасить. Предательство мужа выбивает у Саши почву из-под ног. Но вскоре в ее жизни появляется новый мужчина – тот самый человек, который вскоре поселится в ее квартире. Он кажется немного опасным, почти чужим и головокружительно знакомым…

Качество: WEB-DLRip
Формат: AVI

Видео: XviD, ~ 1600 Кбит/с, 720x400
Аудио: AC3, 2 ch, 192 Кбит/с
скриншот  скриншот  скриншот  скриншот  скриншот  

General
Complete name : H:\Окна на бульвар.2020. WEB-DLRip. Files-x\02. Окна на бульвар.2020. WEB-DLRip. Files-x.avi
Format : AVI
Format/Info : Audio Video Interleave
File size : 570 MiB
Duration : 44mn 13s
Overall bit rate : 1 801 Kbps
Writing application : VirtualDubMod 1.5.10.3 | www.virtualdub-fr.org || (build 2550/release)
Writing library : VirtualDubMod build 2550/release

Video
ID : 0
Format : MPEG-4 Visual
Format profile : Advanced Simple@L5
Format settings, BVOP : 1
Format settings, QPel : No
Format settings, GMC : No warppoints
Format settings, Matrix : Custom
Codec ID : XVID
Codec ID/Hint : XviD
Duration : 44mn 13s
Bit rate : 1 600 Kbps
Width : 720 pixels
Height : 400 pixels
Display aspect ratio : 16:9
Frame rate : 25.000 fps
Color space : YUV
Chroma subsampling : 4:2:0
Bit depth : 8 bits
Scan type : Progressive
Compression mode : Lossy
Bits/(Pixel*Frame) : 0.222
Stream size : 506 MiB (89%)
Writing library : XviD 73

Audio
ID : 1
Format : AC-3
Format/Info : Audio Coding 3
Mode extension : CM (complete main)
Codec ID : 2000
Duration : 44mn 13s
Bit rate mode : Constant
Bit rate : 192 Kbps
Channel(s) : 2 channels
Channel positions : Front: L R
Sampling rate : 48.0 KHz
Bit depth : 16 bits
Compression mode : Lossy
Stream size : 60.7 MiB (11%)
Alignment : Split accross interleaves
Interleave, duration : 40 ms (1.00 video frame)
Interleave, preload duration : 500 ms

pb.wtf



Скачать Окна на бульвар через торрент https://i111.fastpic.ru/big/2020/0307/1d/874caf9cef9b8c787c09c62d2910791d.jpg Скачать фильм Окна на бульвар через торрент бесплантно в хорошем качестве Описание: Квартира на Чистопрудном бульваре – это не просто дорого. Это – особая жизнь, полная воспоминаний, надежд, красоты и романтики. И ... 10 10 5
Торрент: Зарегистрирован [2020-03-08 05:43] · скачан: 50 раз
Статус: √ проверено
Размер: 2.22 GB
Как cкачать? Как скачать Окна на бульвар через торрент | qTorrent

% Раздел Тема Автор DL S | L
Наши сериалы [ 2.21 GB ] Окна на бульвар / Серии: 1-4 из 4 [2020 WEB-DLRip-AVC] bober100 Скачать
2 | 0
Наши сериалы [ 2.07 GB ] Окна на бульвар / Серии: 1-4 из 4 [2020 SATRip-AVC] aleksan55 Скачать
1 | 0

28-11-2019 20:33  

Отключить всю рекламу на сайте

    Дорогой пользователь! Огромная просьба, поблагодарите релизера, оцените раздачу и оставьте свои комментарий, если Вы скачали Окна на бульвар через торрент бесплатно! Внесите свою лепту в развитие PiratBit!
    Комментировать посты могут только пользователи прошедшие не сложную регистрацию
    Показать сообщения:    

    Окна на бульвар через торрент
    Скачать бесплатно Окна на бульвар
    Окна на бульвар скачать торрент
    Окна на бульвар смотреть онлайн
    Cкачать фильм Окна на бульвар бесплатно
    Окна на бульвар скачать торрент в хорошем качестве
    Окна на бульвар смотреть онлайн бесплатно в хорошем качестве


    Вы не можете начинать темы
    Вы не можете отвечать на сообщения
    Вы не можете редактировать свои сообщения
    Вы не можете удалять свои сообщения
    Вы не можете голосовать в опросах
    Вы не можете прикреплять файлы к сообщениям
    Вы можете скачивать файлы