Ссылка на приватное зеркало нашего сайта всего за 1$. Внимание количество ограничено!!!

2 сезон

iTunes

1 сезон

1

2 сезон

2 сезон

iTunes

1 сезон

RePack

30

Ultimate

ВАЖНО

ИГРА 18+

pack

RePack

MK11
pack

Забери бонус

RePack

jed

!!Акция!!

Alien_Rage

RePack

fifa19

RePack

Assassins Creed: Odyssey

RePack

NEED FOR SPEED™ PAYBACK

4 сезон

9 сезон

Бесстыжие 9 сезон

Все сериалы

все сериалы на PB.wtf

RePack

FAR CRY 5
  

Танкистка / Tank Girl (Рэйчел Талалэй) [1995, фантастика, боевик, комедия, Blu-Ray Remux 1080p] 2xMVO, DVO, 3xAVO, 2xVO pb.wtf

Танкистка через торрент pb.wtf

Качают: 1 [ 0 KB/s ]
Размер: 30.89 GB | Добавлен: 8 мес. назад | Торрент скачан:6 раз
Скачать  

08-03-2020 13:03 Танкистка Скачать торрент  

Танкистка / Tank Girl
Год выпуска: 1995

Страна: США

Жанр: Фантастика, боевик, комедия

Продолжительность: 01:44:06

Перевод: Профессиональный (многоголосый), профессиональный (двухголосый), авторский (одноголосый), любительский (одноголосый)

Субтитры: Русские, английские

Режиссер: Рэйчел Талалэй

rating

В ролях: Лори Петти, Айс-Ти, Наоми Уоттс, Дон Харви, Джефф Кобер, Рег Э. Кэти, Скотт Коффи, Малкольм МакДауэлл, Стэйси Линн Рэмсойер, Энн Кьюсак, Брайан Уиммер, Игги Поп, Доун Робинсон, Билли Л. Салливан, Джеймс Хонг, Чарльз Люсия, Хэрлан Кларк, Даг Джонс, Ата Скэнлэн, Альварез Уортэм, Роз Уитт, Бриксон Карнс, Уилл Стрикланд, Чарльз Роберт Харден, Том Нога, Боджесси Кристофер, Джон Дэвид Блэнд, Джо Фаркас, Стэнтон Дэвис, Джиллиан Бэлч, Ричард Шифф, Кэйн Пикой, Трой Стартони, Бет ДеПати, Клэйтон Ланди

Описание: Действие фильма происходит в будущем, после экологической катастрофы. В результате вода стала источником жизни в прямом смысле слова, так как её было очень мало и на всех не хватало. А заправляла всем корпорация «Вода-Энергия-Влacть». Ренегаты воровали воду и воевали со злодеями. Среди ренегатов была и наша героиня, остроумная, красивая и отвязная девушка Ребекка, у которой на всё готов ответ. Её близких и друзей убили, маленькую девочку увели злодеи, а саму её взяли в плен, и хотели было заставить работать в шахте. Но не тут-то было.
Качество: Blu-Ray Remux 1080p
Формат: MKV
Видео: MPEG-4 AVC, 34.5 Мбит/с, 1920x1080, 23.976 кадр/c
Аудио#1: Русский, AC-3, 6 ch, 448 Кбит/с - MVO (CTC)
Аудио#2: Русский, AC-3, 2 ch, 224 Кбит/с - MVO (Варус Видео)
Аудио#3: Русский, AC-3, 2 ch, 192 Кбит/с - DVO (HTB+)
Аудио#4: Русский, DTS, 6 ch, 1510 Кбит/сек - AVO (Андрей Дольский)
Аудио#5: Русский, AC-3, 2 ch, 192 Кбит/с - AVO (Визгунов)
Аудио#6: Русский, AC-3, 2 ch, 192 Кбит/с - AVO (Леонид Володарский)
Аудио#7: Русский, AC-3, 2 ch, 192 Кбит/с - VO (ZEDFILMS)
Аудио#8: Русский, AC-3, 2 ch, 192 Кбит/с - VO
Аудио#9: Английский, DTS, 6 ch, 4635 Кбит/сек
Аудио#10: Английский, AC-3, 2 ch, 224 Кбит/с
Видео
Идентификатор : 1
Формат : AVC
Формат/Информация : Advanced Video Codec
Профиль формата : High@L4.1
Настройки формата : CABAC / 3 Ref Frames
Параметр CABAC формата : Да
Параметр RefFrames формата : 3 кадра
Идентификатор кодека : V_MPEG4/ISO/AVC
Продолжительность : 1 ч. 44 м.
Вид битрейта : Переменный
Битрейт : 34,5 Мбит/сек
Максимальный битрейт : 35,0 Мбит/сек
Ширина : 1920 пикселей
Высота : 1080 пикселей
Соотношение сторон : 16:9
Режим частоты кадров : Постоянный
Частота кадров : 23,976 (24000/1001) кадра/сек
Цветовое пространство : YUV
Субдискретизация насыщенности : 4:2:0
Битовая глубина : 8 бит
Тип развёртки : Прогрессивная
Бит/(Пиксели*Кадры) : 0.693
Размер потока : 25,1 Гбайт (81%)
Default : Да
Forced : Нет
Цветовой диапазон : Limited
Основные цвета : BT.709
Характеристики трансфера : BT.709
Коэффициенты матрицы : BT.709

Аудио #1
Идентификатор : 2
Формат : AC-3
Формат/Информация : Audio Coding 3
Коммерческое название : Dolby Digital
Идентификатор кодека : A_AC3
Продолжительность : 1 ч. 44 м.
Вид битрейта : Постоянный
Битрейт : 448 Кбит/сек
Каналы : 6 каналов
ChannelLayout : L R C LFE Ls Rs
Частота : 48,0 КГц
Частота кадров : 31,250 кадров/сек (1536 SPF)
Битовая глубина : 16 бит
Метод сжатия : С потерями
Размер потока : 334 Мбайт (1%)
Заголовок : MVO [CTC] - AC3 Dolby Digital, 6ch, 448 kbps, 48 kHz
Язык : Russian
ServiceKind/String : Complete Main
Default : Да
Forced : Нет

Аудио #2
Идентификатор : 3
Формат : AC-3
Формат/Информация : Audio Coding 3
Коммерческое название : Dolby Digital
Идентификатор кодека : A_AC3
Продолжительность : 1 ч. 43 м.
Вид битрейта : Постоянный
Битрейт : 224 Кбит/сек
Каналы : 2 канала
ChannelLayout : L R
Частота : 48,0 КГц
Частота кадров : 31,250 кадров/сек (1536 SPF)
Битовая глубина : 16 бит
Метод сжатия : С потерями
Размер потока : 166 Мбайт (1%)
Заголовок : MVO [Varus-Video] - AC3 Dolby Digital, 2ch, 224 kbps, 48 kHz
Язык : Russian
ServiceKind/String : Complete Main
Default : Нет
Forced : Нет

Аудио #3
Идентификатор : 4
Формат : AC-3
Формат/Информация : Audio Coding 3
Коммерческое название : Dolby Digital
Идентификатор кодека : A_AC3
Продолжительность : 1 ч. 43 м.
Вид битрейта : Постоянный
Битрейт : 192 Кбит/сек
Каналы : 2 канала
ChannelLayout : L R
Частота : 48,0 КГц
Частота кадров : 31,250 кадров/сек (1536 SPF)
Битовая глубина : 16 бит
Метод сжатия : С потерями
Размер потока : 143 Мбайт (0%)
Заголовок : DVO [HTB+] - AC3 Dolby Digital, 2ch, 192 kbps, 48 kHz
Язык : Russian
ServiceKind/String : Complete Main
Default : Нет
Forced : Нет

Аудио #4
Идентификатор : 5
Формат : DTS
Формат/Информация : Digital Theater Systems
Идентификатор кодека : A_DTS
Продолжительность : 1 ч. 44 м.
Вид битрейта : Постоянный
Битрейт : 1510 Кбит/сек
Каналы : 6 каналов
ChannelLayout : C L R Ls Rs LFE
Частота : 48,0 КГц
Частота кадров : 93,750 кадра/сек (512 SPF)
Битовая глубина : 24 бит
Метод сжатия : С потерями
Размер потока : 1,10 Гбайт (4%)
Заголовок : AVO [Dolskiy] - DTS, 6ch, 1510 kbps, 48 kHz
Язык : Russian
Default : Нет
Forced : Нет

Аудио #5
Идентификатор : 6
Формат : AC-3
Формат/Информация : Audio Coding 3
Коммерческое название : Dolby Digital
Идентификатор кодека : A_AC3
Продолжительность : 1 ч. 44 м.
Вид битрейта : Постоянный
Битрейт : 192 Кбит/сек
Каналы : 2 канала
ChannelLayout : L R
Частота : 48,0 КГц
Частота кадров : 31,250 кадров/сек (1536 SPF)
Битовая глубина : 16 бит
Метод сжатия : С потерями
Размер потока : 143 Мбайт (0%)
Заголовок : AVO [Vizgunov] - AC3 Dolby Digital, 2ch, 192 kbps, 48 kHz
Язык : Russian
ServiceKind/String : Complete Main
Default : Нет
Forced : Нет

Аудио #6
Идентификатор : 7
Формат : AC-3
Формат/Информация : Audio Coding 3
Коммерческое название : Dolby Digital
Идентификатор кодека : A_AC3
Продолжительность : 1 ч. 44 м.
Вид битрейта : Постоянный
Битрейт : 192 Кбит/сек
Каналы : 2 канала
ChannelLayout : L R
Частота : 48,0 КГц
Частота кадров : 31,250 кадров/сек (1536 SPF)
Битовая глубина : 16 бит
Метод сжатия : С потерями
Размер потока : 143 Мбайт (0%)
Заголовок : AVO [Volodarsky] - AC3 Dolby Digital, 2ch, 192 kbps, 48 kHz
Язык : Russian
ServiceKind/String : Complete Main
Default : Нет
Forced : Нет

Аудио #7
Идентификатор : 8
Формат : AC-3
Формат/Информация : Audio Coding 3
Коммерческое название : Dolby Digital
Идентификатор кодека : A_AC3
Продолжительность : 1 ч. 44 м.
Вид битрейта : Постоянный
Битрейт : 192 Кбит/сек
Каналы : 2 канала
ChannelLayout : L R
Частота : 48,0 КГц
Частота кадров : 31,250 кадров/сек (1536 SPF)
Битовая глубина : 16 бит
Метод сжатия : С потерями
Размер потока : 143 Мбайт (0%)
Заголовок : VO [ZEDFILMS] - AC3 Dolby Digital, 2ch, 192 kbps, 48 kHz
Язык : Russian
ServiceKind/String : Complete Main
Default : Нет
Forced : Нет

Аудио #8
Идентификатор : 9
Формат : AC-3
Формат/Информация : Audio Coding 3
Коммерческое название : Dolby Digital
Идентификатор кодека : A_AC3
Продолжительность : 1 ч. 44 м.
Вид битрейта : Постоянный
Битрейт : 192 Кбит/сек
Каналы : 2 канала
ChannelLayout : L R
Частота : 48,0 КГц
Частота кадров : 31,250 кадров/сек (1536 SPF)
Битовая глубина : 16 бит
Метод сжатия : С потерями
Размер потока : 143 Мбайт (0%)
Заголовок : VO - AC3 Dolby Digital, 2ch, 192 kbps, 48 kHz
Язык : Russian
ServiceKind/String : Complete Main
Default : Нет
Forced : Нет

Аудио #9
Идентификатор : 10
Формат : DTS XLL
Формат/Информация : Digital Theater Systems
Коммерческое название : DTS-HD Master Audio
Идентификатор кодека : A_DTS
Продолжительность : 1 ч. 44 м.
Вид битрейта : Переменный
Битрейт : 4635 Кбит/сек
Каналы : 6 каналов
ChannelLayout : C L R Ls Rs LFE
Частота : 48,0 КГц
Частота кадров : 93,750 кадра/сек (512 SPF)
Битовая глубина : 24 бит
Метод сжатия : Без потерь
Размер потока : 3,37 Гбайт (11%)
Язык : English
Default : Нет
Forced : Нет

Аудио #10
Идентификатор : 11
Формат : AC-3
Формат/Информация : Audio Coding 3
Коммерческое название : Dolby Digital
Идентификатор кодека : A_AC3
Продолжительность : 1 ч. 44 м.
Вид битрейта : Постоянный
Битрейт : 224 Кбит/сек
Каналы : 2 канала
ChannelLayout : L R
Частота : 48,0 КГц
Частота кадров : 31,250 кадров/сек (1536 SPF)
Битовая глубина : 16 бит
Метод сжатия : С потерями
Размер потока : 167 Мбайт (1%)
Язык : English
ServiceKind/String : Complete Main
Default : Нет
Forced : Нет

Текст #1
Идентификатор : 12
Формат : UTF-8
Идентификатор кодека : S_TEXT/UTF8
Идентификатор кодека/Информация : UTF-8 Plain Text
Продолжительность : 1 ч. 38 м.
Битрейт : 76 бит/сек
ElementCount : 1121
Размер потока : 54,8 Кбайт (0%)
Заголовок : Девушка на Танке
Язык : Russian
Default : Да
Forced : Нет

Текст #2
Идентификатор : 13
Формат : UTF-8
Идентификатор кодека : S_TEXT/UTF8
Идентификатор кодека/Информация : UTF-8 Plain Text
Продолжительность : 1 ч. 36 м.
Битрейт : 47 бит/сек
ElementCount : 1245
Размер потока : 33,1 Кбайт (0%)
Заголовок : Tank Girl
Язык : English
Default : Нет
Forced : Нет

Текст #3
Идентификатор : 14
Формат : PGS
Режим смешивания : zlib
Идентификатор кодека : S_HDMV/PGS
Идентификатор кодека/Информация : Picture based subtitle format used on BDs/HD-DVDs
Продолжительность : 1 ч. 36 м.
Битрейт : 25,7 Кбит/сек
ElementCount : 1797
Размер потока : 17,7 Мбайт (0%)
Язык : English
Default : Нет
Forced : Нет

Меню
00:00:00.000 : :Глава 01
00:05:08.641 : :Глава 02
00:07:48.468 : :Глава 03
00:12:21.782 : :Глава 04
00:19:11.066 : :Глава 05
00:30:31.913 : :Глава 06
00:36:53.836 : :Глава 07
00:43:17.219 : :Глава 08
00:46:38.337 : :Глава 09
00:50:24.646 : :Глава 10
00:53:16.484 : :Глава 11
00:57:17.892 : :Глава 12
01:07:05.563 : :Глава 13
01:19:04.072 : :Глава 14
01:33:44.785 : :Глава 15

скриншот   скриншот   скриншот   скриншот   скриншот  

pb.wtf



Скачать Танкистка через торрент http://pic1.kartinco.top/images/12/7mvnt.jpg Скачать фильм Танкистка через торрент бесплантно в хорошем качестве Описание: Действие фильма происходит в будущем, после экологической катастрофы. В результате вода стала источником жизни в прямом смысле ... 5 10 1
Info! Золотая раздача, скачанное не засчитывается.
Торрент: Зарегистрирован [2020-03-08 13:03] · скачан: 6 раз
Статус: √ проверено
Размер: 30.89 GB
Как cкачать? Как скачать Танкистка через торрент | qTorrent

28-11-2019 20:33  

Отключить всю рекламу на сайте

    Дорогой пользователь! Огромная просьба, поблагодарите релизера, оцените раздачу и оставьте свои комментарий, если Вы скачали Танкистка через торрент бесплатно! Внесите свою лепту в развитие PiratBit!
    Комментировать посты могут только пользователи прошедшие не сложную регистрацию
    Показать сообщения:    

    Танкистка через торрент
    Скачать бесплатно Танкистка
    Танкистка скачать торрент
    Танкистка смотреть онлайн
    Cкачать фильм Танкистка бесплатно
    Танкистка скачать торрент в хорошем качестве
    Танкистка смотреть онлайн бесплатно в хорошем качестве


    Вы не можете начинать темы
    Вы не можете отвечать на сообщения
    Вы не можете редактировать свои сообщения
    Вы не можете удалять свои сообщения
    Вы не можете голосовать в опросах
    Вы не можете прикреплять файлы к сообщениям
    Вы можете скачивать файлы