Ссылка на приватное зеркало нашего сайта всего за 1$. Внимание количество ограничено!!!

2 сезон

iTunes

1 сезон

1

2 сезон

2 сезон

iTunes

1 сезон

RePack

30

Новинка

ВАЖНО

ИГРА 18+

pack

RePack

MK11
pack

Забери бонус

RePack

jed

!!Акция!!

Alien_Rage

RePack

fifa19

RePack

Assassins Creed: Odyssey

RePack

NEED FOR SPEED™ PAYBACK

4 сезон

9 сезон

Бесстыжие 9 сезон

Все сериалы

все сериалы на PB.wtf

RePack

FAR CRY 5
  

Мое прекрасное лето с Софи / Une fille facile (Ребекка Злотовски) [2019, Комедия, драма, BD Remux 1080p] DUB [iTunes] pb.wtf

Мое прекрасное лето с Софи через торрент pb.wtf

Размер: 20.81 GB | Добавлен: 8 мес. назад | Торрент скачан:16 раз
Скачать  

08-03-2020 13:32 Мое прекрасное лето с Софи Скачать торрент  

Мое прекрасное лето с Софи | Une fille facile
Год выпуска: 2019
Страна: Франция
Студия: Canal+ [fr], Les Films Velvet, France 3 Cinéma
Жанр: Комедия, драма
Продолжительность: 01:32:17
Перевод: Дублированный | iTunes
Субтитры: Испанские

Режиссер: Ребекка Злотовски

rating

В ролях: Мина Фарид, Захия Дехар, Бенуа Мажимель, Нуно Лопеш, Клотильда Куро, Любна Абидар, Лакдхар Дриди, Анри-Ноэль Табари, Седрик Аппиетто, Микаэль Мильорини

Описание: Найме 16 лет, она живет в Каннах. Учебный год закончился, впереди каникулы - в компании с приехавшей из Парижа 22-летней кузиной Софи, готовой научить подросшую сестренку правилам взрослой жизни. Лови момент - ее главный девиз. А это значит - богатые и щедрые мужчины для того и существуют, чтобы делать счастливыми юных красавиц и дарить им удовольствия. Такое море соблазнов! Отказаться невозможно. Если, конечно, забыть, что за удовольствия положено платить.

Качество: BD Remux 1080p
Формат: MKV

Видео: MPEG-4 AVC, 1920x1080, 30.0 Mbit/s, 24.000 fps
Аудио #01: 48 kHz, AC3, 5.1, 384 Kbps | iTunes | RUS |
Аудио #02: 48 kHz, DTS-HD MA, 5.1, 1867 Kbps | Оригинал | FRE |
скриншот  скриншот  скриншот  скриншот  скриншот  

General
Unique ID : 138122204603235948950166099562309120601 (0x67E95E75ABBF54C280167FBFD9607259)
Complete name : E:Video111Une.fille.facile.2019.BDREMUX.1080p.seleZen.mkv
Format : Matroska
Format version : Version 4
File size : 20.8 GiB
Duration : 1 h 32 min
Overall bit rate mode : Variable
Overall bit rate : 32.3 Mb/s
Movie name : Une fille facile AKA An Easy Girl 2019 from селезень
Encoded date : UTC 2020-03-08 12:56:32
Writing application : mkvmerge v40.0.0 ('Old Town Road + Pony') 64-bit
Writing library : libebml v1.3.9 + libmatroska v1.5.2

Video
ID : 1
Format : AVC
Format/Info : Advanced Video Codec
Format profile : High@L4.1
Format settings : CABAC / 4 Ref Frames
Format settings, CABAC : Yes
Format settings, Reference : 4 frames
Codec ID : V_MPEG4/ISO/AVC
Duration : 1 h 32 min
Bit rate mode : Variable
Bit rate : 30.0 Mb/s
Maximum bit rate : 35.0 Mb/s
Width : 1 920 pixels
Height : 1 080 pixels
Display aspect ratio : 16:9
Frame rate mode : Constant
Frame rate : 24.000 FPS
Standard : NTSC
Color space : YUV
Chroma subsampling : 4:2:0
Bit depth : 8 bits
Scan type : Progressive
Bits/(Pixel*Frame) : 0.603
Stream size : 19.4 GiB (93%)
Language : French
Default : Yes
Forced : No
Color range : Limited
Color primaries : BT.709
Transfer characteristics : BT.709
Matrix coefficients : BT.709

Audio #1
ID : 2
Format : AC-3
Format/Info : Audio Coding 3
Commercial name : Dolby Digital
Codec ID : A_AC3
Duration : 1 h 32 min
Bit rate mode : Constant
Bit rate : 384 kb/s
Channel(s) : 6 channels
Channel layout : L R C LFE Ls Rs
Sampling rate : 48.0 kHz
Frame rate : 31.250 FPS (1536 SPF)
Compression mode : Lossy
Stream size : 253 MiB (1%)
Title : iTunes
Language : Russian
Service kind : Complete Main
Default : Yes
Forced : Yes

Audio #2
ID : 3
Format : DTS XLL
Format/Info : Digital Theater Systems
Commercial name : DTS-HD Master Audio
Codec ID : A_DTS
Duration : 1 h 32 min
Bit rate mode : Variable
Bit rate : 1 867 kb/s
Channel(s) : 6 channels
Channel layout : C L R Ls Rs LFE
Sampling rate : 48.0 kHz
Frame rate : 93.750 FPS (512 SPF)
Bit depth : 16 bits
Compression mode : Lossless
Stream size : 1.20 GiB (6%)
Title : Original
Language : French
Default : No
Forced : No

Text
ID : 4
Format : UTF-8
Codec ID : S_TEXT/UTF8
Codec ID/Info : UTF-8 Plain Text
Duration : 1 h 27 min
Bit rate : 40 b/s
Count of elements : 871
Stream size : 25.8 KiB (0%)
Title : Full
Language : Spanish
Default : No
Forced : No

pb.wtf



Скачать Мое прекрасное лето с Софи через торрент https://img10.lostpic.net/2020/03/08/ea5f34a5bf3801efd8b5d43d040143eb.jpg Скачать фильм Мое прекрасное лето с Софи через торрент бесплантно в хорошем качестве Описание: Найме 16 лет, она живет в Каннах. Учебный год закончился, впереди каникулы - в компании с приехавшей из Парижа 22-летней кузиной ... 10 10 5
Торрент: Зарегистрирован [2020-03-08 13:32] · скачан: 16 раз
Статус: √ проверено
Размер: 20.81 GB
Как cкачать? Как скачать Мое прекрасное лето с Софи через торрент | qTorrent

% Раздел Тема Автор DL S | L
Фильмы 2019-2020 [DVDrip, WEB-DLRip, HDrip] (DUB, MVO) [ 670 MB ] Мое прекрасное лето с Софи / Une fille facile [2019 WEB-DLRip ] Leonardo'D Скачать
2 | 0
Фильмы 2019-2020 [DVDrip, WEB-DLRip, HDrip] (DUB, MVO) [ 1.46 GB ] Мое прекрасное лето с Софи / Une fille facile [2019 BDRip] bober100 Скачать
4 | 0
Фильмы (WEB-DL 720p, 1080p) [ 3.27 GB ] Мое прекрасное лето с Софи / Une fille facile [2019 WEB-DL 1080p] bober100 Скачать
5 | 0

28-11-2019 20:33  

Отключить всю рекламу на сайте

    Дорогой пользователь! Огромная просьба, поблагодарите релизера, оцените раздачу и оставьте свои комментарий, если Вы скачали Мое прекрасное лето с Софи через торрент бесплатно! Внесите свою лепту в развитие PiratBit!
    Комментировать посты могут только пользователи прошедшие не сложную регистрацию
    Показать сообщения:    

    Мое прекрасное лето с Софи через торрент
    Скачать бесплатно Мое прекрасное лето с Софи
    Мое прекрасное лето с Софи скачать торрент
    Мое прекрасное лето с Софи смотреть онлайн
    Cкачать фильм Мое прекрасное лето с Софи бесплатно
    Мое прекрасное лето с Софи скачать торрент в хорошем качестве
    Мое прекрасное лето с Софи смотреть онлайн бесплатно в хорошем качестве


    Вы не можете начинать темы
    Вы не можете отвечать на сообщения
    Вы не можете редактировать свои сообщения
    Вы не можете удалять свои сообщения
    Вы не можете голосовать в опросах
    Вы не можете прикреплять файлы к сообщениям
    Вы можете скачивать файлы