Ссылка на приватное зеркало нашего сайта всего за 1$. Внимание количество ограничено!!!

2 сезон

iTunes

1 сезон

1

2 сезон

2 сезон

iTunes

1 сезон

RePack

30

Новинка

ВАЖНО

ИГРА 18+

pack

RePack

MK11
pack

Забери бонус

RePack

jed

!!Акция!!

Alien_Rage

RePack

fifa19

RePack

Assassins Creed: Odyssey

RePack

NEED FOR SPEED™ PAYBACK

4 сезон

9 сезон

Бесстыжие 9 сезон

Все сериалы

все сериалы на PB.wtf

RePack

FAR CRY 5
  

Дело Ричарда Джуэлла / Richard Jewell (Клинт Иствуд) [2019, драма, биография, BD Remux 1080p] DUB [iTunes] pb.wtf

Дело Ричарда Джуэлла через торрент pb.wtf

Размер: 31.16 GB | Добавлен: 8 мес. назад | Торрент скачан:58 раз
Скачать  

08-03-2020 15:18 Дело Ричарда Джуэлла Скачать торрент  

Дело Ричарда Джуэлла | Richard Jewell
Год выпуска: 2019
Страна: США
Студия: 75 Year Plan Productions, Appian Way, Misher Films
Жанр: драма, биография
Продолжительность: 02:10:55
Перевод: Дублированный | iTunes
Субтитры: Русские (Forced, full), английские

Режиссер: Клинт Иствуд

rating

В ролях: Пол Уолтер Хаузер, Сэм Рокуэлл, Брэндон Стэнли, Райан Боз, Чарльз Грин, Оливия Уайлд, Майк Пневски, Джон Хэмм, Иэн Гомес, Нина Арианда

Описание: История Ричарда Джуэлла, который работал охранником на Олимпийских играх 1996 года в Атланте и, заметив рюкзак с бомбой, сумел вовремя эвакуировать людей. Однако всеобщая благодарность длилась недолго: через несколько дней Джуэлл сам превратился в главного подозреваемого и жертву уничижительной травли со стороны СМИ.

Качество: BD Remux 1080p
Формат: MKV

Видео: MPEG-4 AVC, 1920x1080, 31.5 Mbit/s, 23.976 fps
Аудио #01: 48 kHz, AC3, 5.1, 384 Kbps | iTunes | RUS |
Аудио #02: 48 kHz, DTS-HD MA, 5.1, 2130 Kbps | Оригинал | ENG |
скриншот  скриншот  скриншот  скриншот  скриншот  

General
Unique ID : 299183504955638808688069415187331365014 (0xE114A5A8BE7719C93F5E7487FAA73896)
Complete name : E:Video111Richard.Jewell.2019.BDREMUX.1080p.seleZen.mkv
Format : Matroska
Format version : Version 4
File size : 31.2 GiB
Duration : 2 h 10 min
Overall bit rate mode : Variable
Overall bit rate : 34.1 Mb/s
Movie name : Richard Jewell 2019 from селезень
Encoded date : UTC 2020-03-08 14:56:02
Writing application : mkvmerge v40.0.0 ('Old Town Road + Pony') 64-bit
Writing library : libebml v1.3.9 + libmatroska v1.5.2

Video
ID : 1
Format : AVC
Format/Info : Advanced Video Codec
Format profile : High@L4.1
Format settings : CABAC / 4 Ref Frames
Format settings, CABAC : Yes
Format settings, Reference : 4 frames
Codec ID : V_MPEG4/ISO/AVC
Duration : 2 h 10 min
Bit rate mode : Variable
Bit rate : 31.5 Mb/s
Maximum bit rate : 34.5 Mb/s
Width : 1 920 pixels
Height : 1 080 pixels
Display aspect ratio : 16:9
Frame rate mode : Constant
Frame rate : 23.976 (24000/1001) FPS
Color space : YUV
Chroma subsampling : 4:2:0
Bit depth : 8 bits
Scan type : Progressive
Bits/(Pixel*Frame) : 0.635
Stream size : 28.9 GiB (93%)
Language : English
Default : Yes
Forced : No

Audio #1
ID : 2
Format : AC-3
Format/Info : Audio Coding 3
Commercial name : Dolby Digital
Codec ID : A_AC3
Duration : 2 h 10 min
Bit rate mode : Constant
Bit rate : 384 kb/s
Channel(s) : 6 channels
Channel layout : L R C LFE Ls Rs
Sampling rate : 48.0 kHz
Frame rate : 31.250 FPS (1536 SPF)
Compression mode : Lossy
Stream size : 360 MiB (1%)
Title : iTunes
Language : Russian
Service kind : Complete Main
Default : Yes
Forced : Yes

Audio #2
ID : 3
Format : DTS XLL
Format/Info : Digital Theater Systems
Commercial name : DTS-HD Master Audio
Codec ID : A_DTS
Duration : 2 h 10 min
Bit rate mode : Variable
Bit rate : 2 130 kb/s
Channel(s) : 6 channels
Channel layout : C L R Ls Rs LFE
Sampling rate : 48.0 kHz
Frame rate : 93.750 FPS (512 SPF)
Bit depth : 16 bits
Compression mode : Lossless
Stream size : 1.95 GiB (6%)
Title : Original
Language : English
Default : No
Forced : No

Text #1
ID : 4
Format : UTF-8
Codec ID : S_TEXT/UTF8
Codec ID/Info : UTF-8 Plain Text
Duration : 2 h 4 min
Bit rate : 4 b/s
Count of elements : 57
Stream size : 4.02 KiB (0%)
Title : Forced
Language : Russian
Default : Yes
Forced : Yes

Text #2
ID : 5
Format : UTF-8
Codec ID : S_TEXT/UTF8
Codec ID/Info : UTF-8 Plain Text
Duration : 2 h 4 min
Bit rate : 109 b/s
Count of elements : 2103
Stream size : 99.9 KiB (0%)
Title : Full
Language : Russian
Default : No
Forced : No

Text #3
ID : 6
Format : UTF-8
Codec ID : S_TEXT/UTF8
Codec ID/Info : UTF-8 Plain Text
Duration : 2 h 3 min
Bit rate : 80 b/s
Count of elements : 2470
Stream size : 72.7 KiB (0%)
Title : Full
Language : English
Default : No
Forced : No

Text #4
ID : 7
Format : UTF-8
Codec ID : S_TEXT/UTF8
Codec ID/Info : UTF-8 Plain Text
Duration : 2 h 3 min
Bit rate : 87 b/s
Count of elements : 2665
Stream size : 79.7 KiB (0%)
Title : SDH
Language : English
Default : No
Forced : No

Menu
00:00:00.000 : en:Chapter 01
00:09:51.633 : en:Chapter 02
00:20:03.619 : en:Chapter 03
00:29:55.127 : en:Chapter 04
00:40:03.192 : en:Chapter 05
00:48:21.065 : en:Chapter 06
00:57:52.552 : en:Chapter 07
01:06:35.575 : en:Chapter 08
01:14:34.303 : en:Chapter 09
01:24:33.402 : en:Chapter 10
01:34:04.097 : en:Chapter 11
01:44:01.360 : en:Chapter 12
01:52:20.192 : en:Chapter 13
02:02:28.550 : en:Chapter 14
02:04:53.361 : en:Chapter 15

pb.wtf



Скачать Дело Ричарда Джуэлла через торрент https://img10.lostpic.net/2020/03/04/22ade6167a655533b48c15aae5caf264.jpg Скачать фильм Дело Ричарда Джуэлла через торрент бесплантно в хорошем качестве Описание: История Ричарда Джуэлла, который работал охранником на Олимпийских играх 1996 года в Атланте и, заметив рюкзак с бомбой, сумел ... 9.6 10 5
Торрент: Зарегистрирован [2020-03-08 15:18] · скачан: 58 раз
Статус: √ проверено
Размер: 31.16 GB
Как cкачать? Как скачать Дело Ричарда Джуэлла через торрент | qTorrent

% Раздел Тема Автор DL S | L
Фильмы 2019-2020 [DVDrip, WEB-DLRip, HDrip] (DUB, MVO) [ 2.12 GB ] Дело Ричарда Джуэлла / Richard Jewell [2019 биография BDRip] - Twi7ter Скачать
23 | 4
Фильмы 2019-2020 [DVDrip, WEB-DLRip, HDrip] (DUB, MVO) [ 1.46 GB ] Дело Ричарда Джуэлла / Richard Jewell [2019 биография BDRip] - Twi7ter Скачать
35 | 0
Фильмы [HD 720p, 1080p] (Хороший звук DUB, MVO) [ 7.07 GB ] Дело Ричарда Джуэлла / Richard Jewell [2019 биография BDRip 720p] bober100 Скачать
1 | 0
Фильмы [HD 720p, 1080p] (Хороший звук DUB, MVO) [ 11.95 GB ] Дело Ричарда Джуэлла / Richard Jewell [2019 биография BDRip 1080p] bober100 Скачать
1 | 0
Фильмы (WEB-DL 720p, 1080p) [ 7.31 GB ] Дело Ричарда Джуэлла / Richard Jewell [2019 биография WEB-DL 1080p] bober100 Скачать
2 | 0
Фильмы (WEB-DL 720p, 1080p) [ 3.84 GB ] Дело Ричарда Джуэлла / Richard Jewell [2019 биография WEB-DL 720p] bober100 Скачать
1 | 0
Фильмы 2019-2020 [DVDrip, WEB-DLRip, HDrip] (DUB, MVO) [ 2.12 GB ] Дело Ричарда Джуэлла / Richard Jewell [2019 биография BDRip] bober100 Скачать
1 | 0

28-11-2019 20:33  

Отключить всю рекламу на сайте

    Дорогой пользователь! Огромная просьба, поблагодарите релизера, оцените раздачу и оставьте свои комментарий, если Вы скачали Дело Ричарда Джуэлла через торрент бесплатно! Внесите свою лепту в развитие PiratBit!
    Комментировать посты могут только пользователи прошедшие не сложную регистрацию
    Показать сообщения:    

    Дело Ричарда Джуэлла через торрент
    Скачать бесплатно Дело Ричарда Джуэлла
    Дело Ричарда Джуэлла скачать торрент
    Дело Ричарда Джуэлла смотреть онлайн
    Cкачать фильм Дело Ричарда Джуэлла бесплатно
    Дело Ричарда Джуэлла скачать торрент в хорошем качестве
    Дело Ричарда Джуэлла смотреть онлайн бесплатно в хорошем качестве


    Вы не можете начинать темы
    Вы не можете отвечать на сообщения
    Вы не можете редактировать свои сообщения
    Вы не можете удалять свои сообщения
    Вы не можете голосовать в опросах
    Вы не можете прикреплять файлы к сообщениям
    Вы можете скачивать файлы