Всегда рабочее зеркало без VPN и Proxy просто перед .vidak.icu напиши любое слово или цифру, Пример http://gc5u.vidak.icu

MVO

MVO

1 сезон

1

1 сезон

iTunes

1 сезон

13

1 сезон

Deluxe

pack

Рекомендуем

Repack

30

ВАЖНО

RePack

MK11

RePack

jed

RePack

fifa19

RePack

RDR2

RePack

NEED FOR SPEED™ PAYBACK

Кинопоиск HD

6 сезон

 Острые козырьки 6 сезон

Все сериалы

все сериалы на PB.wtf

RePack

FAR CRY 5
  
Magnet ссылка

Кролик Джоджо / Jojo Rabbit (Тайка Вайтити) [2019, драма, комедия, военный, история, UHD BDRemux 2160p] 2x[MVO] + [DVO] + [AVO] pb.wtf

Кролик Джоджо через торрент pb.wtf

Размер: 49.58 GB | Добавлен: 2 года 4 мес. назад | Торрент скачан:118 раз
Смотреть онлайн Кролик Джоджо | Скачать    Ребята, помогите собрать деньги на оплату серверов!!!

08-03-2020 17:05 Кролик Джоджо Скачать торрент  

Кролик Джоджо / Jojo Rabbit

Страна: США, Новая Зеландия, Чехия
Жанр: драма, комедия, военный, история
Год выпуска: 2019
Продолжительность: 01:48:23
Перевод 1: Профессиональный (многоголосый закадровый) Good People
Перевод 2: Профессиональный (многоголосый закадровый) HDRezka Studio
Перевод 3: Любительский (двухголосый закадровый) McElroy & Корш
Перевод 4: Авторский (одноголосый закадровый) М. Яроцкий
Субтитры: русские, aнглийскиe

Режиссер: Тайка Вайтити / Taika Waititi

В ролях: Роман Гриффин Дэвис, Томасин МакКензи, Скарлетт Йоханссон, Тайка Вайтити, Сэм Рокуэлл, Ребел Уилсон, Алфи Аллен, Стивен Мерчант, Арчи Йейтс, Люк Шуфилд, Станислав Каллас, Джо Вайнтрауб, Брайан Каспе

Описание: Гитлеровская Германия. У немного стеснительного 10-летнего Йоханнеса Бетслера, члена Гитлерюгенда и большого поклонника официального курса, есть лучший друг — воображаемый Адольф Гитлер. Хоть мальчик сам ещё никак не научится завязывать шнурки, он отправляется на выходные в военно-патриотический лагерь, где, не решившись убить кролика, получает прозвище Кролик Джоджо. А после, пытаясь доказать окружающим свою смелость, парень случайно подрывается на гранате. Но вскоре у Джоджо появится более веская причина для волнения, чем собственные шрамы, — он выясняет, что мама прячет в доме еврейскую девушку.

rating

Тип релиза: UHD BDRemux 2160p
Контейнер: MKV
Видео: 3840х2160p (16:9), 23,976 fps, MPEG-H HEVC (x265), [email protected] ~ 60223 kbps, 0.303 bit/pixel, HDR10
Аудио 1: Russian: 48 kHz, AC3, 3/2 (L,C,R,l,r) + LFE ch, ~640 kbps avg 16-bit | Good People
Аудио 2: Russian: 48 kHz, AC3, 3/2 (L,C,R,l,r) + LFE ch, ~448 kbps avg 16-bit | HDRezka Studio
Аудио 3: Russian: 48 kHz, AC3, 2/0 (L,R)ch, ~384 kbps avg 16-bit | McElroy & Корш
Аудио 4: Russian: 48 kHz, AC3, 2/0 (L,R)ch, ~ 224 kbps avg 16-bit | М. Яроцкий
Аудио 5: English: 48 kHz/24-bit, DTS-HD MA 5.1 , ~3341 kbps avg (DTS Core: 5.1 / 48 kHz / 1509 kbps / 24-bit)
Аудио 6: English: 48 kHz, AC3, 2/0 (L,R)ch, ~ 224 kbps kbps avg 16-bit | Commentary by Director Taika Waititi
http://sendfile.su/1544872
Общее
Уникальный идентификатор : 258690696540092870974136424579943481436 (0xC29E0410B7CB6AFFEDA505397061C05C)
Полное имя : D:\Jojo.Rabbit.2019.UHD.Remux.2160p.mkv
Формат : Matroska
Версия формата : Version 4 / Version 2
Размер файла : 49,6 Гбайт
Продолжительность : 1 ч. 48 м.
Общий поток : 65,5 Мбит/сек
Дата кодирования : UTC 2020-02-12 13:02:11
Программа кодирования : mkvmerge v37.0.0 ('Leave It') 64-bit
Библиотека кодирования : libebml v1.3.9 + libmatroska v1.5.2

Видео
Идентификатор : 1
Формат : HEVC
Формат/Информация : High Efficiency Video Coding
Профиль формата : Main [email protected]@High
Идентификатор кодека : V_MPEGH/ISO/HEVC
Продолжительность : 1 ч. 48 м.
Битрейт : 60,2 Мбит/сек
Ширина : 3840 пикселей
Высота : 2160 пикселей
Соотношение сторон : 16:9
Режим частоты кадров : Постоянный
Частота кадров : 23,976 (24000/1001) кадра/сек
Цветовое пространство : YUV
Субдискретизация насыщенности : 4:2:0 (Type 2)
Битовая глубина : 10 бит
Бит/(Пиксели*Кадры) : 0.303
Размер потока : 45,6 Гбайт (92%)
Язык : English
Default : Да
Forced : Нет
Цветовой диапазон : Limited
Основные цвета : BT.2020
Характеристики трансфера : SMPTE ST 2084
Коэффициенты матрицы : BT.2020 non-constant
MasteringDisplay_ColorPrimaries : R: x=0.680000 y=0.320000, G: x=0.265000 y=0.690000, B: x=0.150000 y=0.060000, White point: x=0.312700 y=0.329000
MasteringDisplay_Luminance : min: 0.0050 cd/m2, max: 1000.0000 cd/m2

Аудио #1
Идентификатор : 2
Формат : AC-3
Формат/Информация : Audio Coding 3
Параметр Endianness формата : Big
Идентификатор кодека : A_AC3
Продолжительность : 1 ч. 48 м.
Вид битрейта : Постоянный
Битрейт : 640 Кбит/сек
Каналы : 6 каналов
Расположение каналов : Front: L C R, Side: L R, LFE
Частота : 48,0 КГц
Частота кадров : 31,250 кадров/сек (1536 SPF)
Битовая глубина : 16 бит
Метод сжатия : С потерями
Размер потока : 496 Мбайт (1%)
Заголовок : MVO GoodPeople
Язык : Russian
ServiceKind/String : Complete Main
Default : Да
Forced : Нет

Аудио #2
Идентификатор : 3
Формат : AC-3
Формат/Информация : Audio Coding 3
Параметр Endianness формата : Big
Идентификатор кодека : A_AC3
Продолжительность : 1 ч. 48 м.
Вид битрейта : Постоянный
Битрейт : 448 Кбит/сек
Каналы : 6 каналов
Расположение каналов : Front: L C R, Side: L R, LFE
Частота : 48,0 КГц
Частота кадров : 31,250 кадров/сек (1536 SPF)
Битовая глубина : 16 бит
Метод сжатия : С потерями
Размер потока : 347 Мбайт (1%)
Заголовок : MVO
Язык : Russian
ServiceKind/String : Complete Main
Default : Нет
Forced : Нет

Аудио #3
Идентификатор : 4
Формат : AC-3
Формат/Информация : Audio Coding 3
Параметр Endianness формата : Big
Идентификатор кодека : A_AC3
Продолжительность : 1 ч. 48 м.
Вид битрейта : Постоянный
Битрейт : 384 Кбит/сек
Каналы : 2 канала
Расположение каналов : Front: L R
Частота : 48,0 КГц
Частота кадров : 31,250 кадров/сек (1536 SPF)
Битовая глубина : 16 бит
Метод сжатия : С потерями
Размер потока : 298 Мбайт (1%)
Заголовок : DVO
Язык : Russian
ServiceKind/String : Complete Main
Default : Нет
Forced : Нет

Аудио #4
Идентификатор : 5
Формат : AC-3
Формат/Информация : Audio Coding 3
Параметр Endianness формата : Big
Идентификатор кодека : A_AC3
Продолжительность : 1 ч. 48 м.
Вид битрейта : Постоянный
Битрейт : 224 Кбит/сек
Каналы : 2 канала
Расположение каналов : Front: L R
Частота : 48,0 КГц
Частота кадров : 31,250 кадров/сек (1536 SPF)
Битовая глубина : 16 бит
Метод сжатия : С потерями
Размер потока : 174 Мбайт (0%)
Заголовок : VO
Язык : Russian
ServiceKind/String : Complete Main
Default : Нет
Forced : Нет

Аудио #5
Идентификатор : 6
Формат : DTS
Формат/Информация : Digital Theater Systems
Профиль формата : MA / Core
Режим : 16
Параметр Endianness формата : Big
Идентификатор кодека : A_DTS
Продолжительность : 1 ч. 48 м.
Вид битрейта : Переменный / Постоянный
Битрейт : 3341 Кбит/сек / 1509 Кбит/сек
Каналы : 6 каналов
Расположение каналов : Front: L C R, Side: L R, LFE
Частота : 48,0 КГц
Частота кадров : 93,750 кадра/сек (512 SPF)
Битовая глубина : 24 бит
Метод сжатия : Без потерь / Lossy
Размер потока : 2,53 Гбайт (5%)
Заголовок : Original
Язык : English
Default : Нет
Forced : Нет

Аудио #6
Идентификатор : 7
Формат : AC-3
Формат/Информация : Audio Coding 3
Параметр Endianness формата : Big
Идентификатор кодека : A_AC3
Продолжительность : 1 ч. 48 м.
Вид битрейта : Постоянный
Битрейт : 224 Кбит/сек
Каналы : 2 канала
Расположение каналов : Front: L R
Частота : 48,0 КГц
Частота кадров : 31,250 кадров/сек (1536 SPF)
Битовая глубина : 16 бит
Метод сжатия : С потерями
Размер потока : 174 Мбайт (0%)
Заголовок : Commentary
Язык : English
ServiceKind/String : Complete Main
Default : Нет
Forced : Нет

Текст #1
Идентификатор : 8
Формат : UTF-8
Идентификатор кодека : S_TEXT/UTF8
Идентификатор кодека/Информация : UTF-8 Plain Text
Продолжительность : 1 ч. 47 м.
Битрейт : 95 бит/сек
ElementCount : 1306
Размер потока : 74,9 Кбайт (0%)
Заголовок : Notabenoid StasSlender
Язык : Russian
Default : Нет
Forced : Нет

Текст #2
Идентификатор : 9
Формат : UTF-8
Идентификатор кодека : S_TEXT/UTF8
Идентификатор кодека/Информация : UTF-8 Plain Text
Продолжительность : 1 ч. 42 м.
Битрейт : 97 бит/сек
ElementCount : 1365
Размер потока : 73,0 Кбайт (0%)
Заголовок : Meninsub
Язык : Russian
Default : Нет
Forced : Нет

Текст #3
Идентификатор : 10
Формат : UTF-8
Идентификатор кодека : S_TEXT/UTF8
Идентификатор кодека/Информация : UTF-8 Plain Text
Продолжительность : 1 ч. 42 м.
Битрейт : 95 бит/сек
ElementCount : 1293
Размер потока : 71,6 Кбайт (0%)
Заголовок : Chrevodoll
Язык : Russian
Default : Нет
Forced : Нет

Текст #4
Идентификатор : 11
Формат : UTF-8
Идентификатор кодека : S_TEXT/UTF8
Идентификатор кодека/Информация : UTF-8 Plain Text
Продолжительность : 1 ч. 47 м.
Битрейт : 66 бит/сек
ElementCount : 1793
Размер потока : 51,8 Кбайт (0%)
Заголовок : Full
Язык : English
Default : Нет
Forced : Нет

Меню
00:00:00.000 : en:Chapter 01
00:06:04.906 : en:Chapter 02
00:09:25.523 : en:Chapter 03
00:13:34.522 : en:Chapter 04
00:16:17.059 : en:Chapter 05
00:20:09.333 : en:Chapter 06
00:27:09.461 : en:Chapter 07
00:31:02.861 : en:Chapter 08
00:36:30.146 : en:Chapter 09
00:39:45.967 : en:Chapter 10
00:44:13.192 : en:Chapter 11
00:49:53.782 : en:Chapter 12
00:53:17.194 : en:Chapter 13
00:59:35.113 : en:Chapter 14
01:03:34.019 : en:Chapter 15
01:08:32.483 : en:Chapter 16
01:14:20.498 : en:Chapter 17
01:17:36.485 : en:Chapter 18
01:22:13.387 : en:Chapter 19
01:26:20.675 : en:Chapter 20
01:29:24.901 : en:Chapter 21
01:32:28.042 : en:Chapter 22
01:37:15.371 : en:Chapter 23
01:41:03.015 : en:Chapter 24
скриншот  скриншот  скриншот  
pb.wtf



Скачать Кролик Джоджо через торрент http://b.radikal.ru/b03/2002/41/be42fd853581.jpg Скачать, смотреть онлайн Кролик Джоджо бесплантно в хорошем качестве Описание: Гитлеровская Германия. У немного стеснительного 10-летнего Йоханнеса Бетслера, члена Гитлерюгенда и большого поклонника ... 10 10 4
Торрент: Зарегистрирован [2020-03-08 17:05] · скачан: 118 раз
Статус: √ проверено
Размер: 49.58 GB
Как cкачать? Как скачать Кролик Джоджо через торрент | UTorrent

% Раздел Тема Автор DL S | L
Фильмы 2019-2020 (Звук TS, Cam, VO, DVO) [ 1.46 GB ] Кролик Джоджо / Jojo Rabbit [2019 военный история BDRip] [DVO] killermax2013 Скачать
1 | 0
Фильмы 2019-2020 [DVDrip, WEB-DLRip, HDrip] (DUB, MVO) [ 1.46 GB ] Кролик Джоджо / Jojo Rabbit [2019 военный BDRip] MVO [Good People] Twi7ter Скачать
5 | 0
Фильмы 2019-2020 [DVDrip, WEB-DLRip, HDrip] (DUB, MVO) [ 1.46 GB ] Кролик Джоджо / Jojo Rabbit [2019 военный BDRip] MVO [HDRezka Studio] bober100 Скачать
1 | 0
Фильмы [HD 720p, 1080p] (Хороший звук DUB, MVO) [ 9.89 GB ] Кролик Джоджо / Jojo Rabbit [2019 военный BDRip 1080p] 2xMVO+DVO+AVO bober100 Скачать
2 | 0
Фильмы 2019-2020 [DVDrip, WEB-DLRip, HDrip] (DUB, MVO) [ 1.63 GB ] Кролик Джоджо / Jojo Rabbit [2019 военный WEB-DLRip] MVO [HDRezka Studio] +AVO [М. Яроцкий] bober100 Скачать
1 | 0
Фильмы (WEB-DL 720p, 1080p) [ 4.93 GB ] Кролик Джоджо / Jojo Rabbit [2019 военный WEB-DL 720p] MVO [HDRezka Studio] +DVO [McElroy Корш] +AVO [М. Яроцкий] bober100 Скачать
1 | 0
T Фильмы без перевода [ 1.26 GB ] Кролик Джоджо / Jojo Rabbit [2019 военный DVDScr] [ENG] killermax2013 Скачать
1 | 0

28-11-2019 20:33  

Отключить вcю реклaмy на сайте

    Дорогой пользователь! Огромная просьба, поблагодарите релизера, оцените раздачу и оставьте свои комментарий, если Вы скачали Кролик Джоджо через торрент бесплатно!
    Комментировать посты могут только пользователи прошедшие не сложную регистрацию
    Показать сообщения:    

    Кролик Джоджо через торрент
    Скачать бесплатно Кролик Джоджо
    Кролик Джоджо скачать торрент
    Кролик Джоджо смотреть онлайн
    Cкачать фильм Кролик Джоджо бесплатно
    Кролик Джоджо скачать торрент в хорошем качестве
    Кролик Джоджо смотреть онлайн бесплатно в хорошем качестве


    Вы не можете начинать темы
    Вы не можете отвечать на сообщения
    Вы не можете редактировать свои сообщения
    Вы не можете удалять свои сообщения
    Вы не можете голосовать в опросах
    Вы не можете прикреплять файлы к сообщениям
    Вы можете скачивать файлы