Ссылка на приватное зеркало нашего сайта всего за 1$. Внимание количество ограничено!!!

2 сезон

iTunes

1 сезон

1

2 сезон

2 сезон

iTunes

1 сезон

RePack

30

Новинка

ВАЖНО

ИГРА 18+

pack

RePack

MK11
pack

Забери бонус

RePack

jed

!!Акция!!

Alien_Rage

RePack

fifa19

RePack

Assassins Creed: Odyssey

RePack

NEED FOR SPEED™ PAYBACK

4 сезон

9 сезон

Бесстыжие 9 сезон

Все сериалы

все сериалы на PB.wtf

RePack

FAR CRY 5
  

Джонни Д. / Public Enemies (Майкл Манн) [2009 г., Триллер, драма, криминал, BD Remux, Дубляж] pb.wtf

Джонни Д. через торрент pb.wtf

Размер: 22.19 GB | Добавлен: 8 мес. назад | Торрент скачан:10 раз
Скачать  

08-03-2020 22:06 Джонни Д. Скачать торрент  

Джонни Д. / Public Enemies
Год выпуска: 2009
Страна: США
Жанр: Триллер, драма, криминал
Продолжительность: 02:20:04
Перевод: Дубляж
Субтитры: Русские, украинские, английские

Режиссер: Майкл Манн

В ролях: Джонни Депп, Кристиан Бэйл, Марион Котийяр, Стивен Ланг, Стивен Грэм, Кэри Маллиган, Джо ДеВито, Питер Джерети, Дон Фрай, Сьюзи Брэк, Анджелина Любомирова, Дженнифер Баджер, Майкл Бент, Роберт Майкл Виё, Джон Майкл Болджер, Ричард Шорт, Джеффри Кэнтор, Марк Грэйпи, Чандлер Уильямс, Дон Кресс, Джордан Лоусон, Томми Бартлетт, Джозеф Луис Кабальеро, Трэйси Руджеро, Холли Баррет, Адам Муччи, Билл Кэмп, Гай Ван Сверинген, Карл Паоли, Джозеф Мазурк

Описание: Сюжет фильма повествует о легендарном грабителе банков Джоне Диллинджере. Дерзкие нападения сделали его выдающимся героем для всех угнетенных и главной мишенью для лучшего агента ФБР Мелвиса Первиса и его молодого напарника Джея Эдгара Гувера. Никто не мог остановить банду Диллинджера. Ни одна тюрьма не могла его удержать. Обаяние и отчаянные побеги прославляли преступника в обществе, считавшем банки главной причиной Великой депрессии. В то время, как приключения лихой банды, к которой примкнули Малявка Нельсон и Элвин Карпис, вдохновляли обозленных граждан, Гувер решил воспользоваться случаем и превратить Бюро расследований в главную правоохранительную организацию страны, ФБР. Он сделал Диллинджера самым опасным врагом Америки, а спасителем нарек Первиса, гордость Федерального бюро.

Качество: BD Remux
Формат: MKV
Видео кодек: AVC
Аудио кодек: AC3-DTS-DTS-HD MA
Видео: MPEG-4 AVC, (1920x1080),18 100 Кбит/с, 23.976 кадра/сек
Аудио#1: DTS, 6 ch, 768 kbps (Rus) 48.0 KHz Дублированный
Аудио#2: DTS-HD MA, 6 ch, 3678 kbps (Eng) 48.0 KHz Оригинал
Аудио#3: AC3, 2 ch, 192 kbps (Eng) 48.0 KHz Оригинал
скриншот   скриншот   скриншот  

Имя файла: Djoni.D.2009.BDRemux(1080p).mkv
Формат файла: .mkv (Matroska)
Размер файла: 22,19 GB (23 830 887 932 bytes)
Длительность: 2h 19mn
Навигация по главам: Есть
Битрейт (все потоки): 22.7 Mbps
Тип битрейта (все потоки): Variable
Файл создан: UTC 2009-11-22 14:53:09
Создан при помощи: mkvmerge v2.9.8 ('C'est le bon') built on Aug 13 2009 12:49:06
Использовалась библиотека: libebml v0.7.7 + libmatroska v0.8.1
Обложка: Отсутствует
:
Название: Djoni.D.2009.BDRemux(1080p)
:
Тип потока: Видео
Длительность: 02:19:43
Кодек: AVC
Кодек/описание: Advanced Video Codec
Кодек/профиль: High@L4.1
Кодек/ID: V_MPEG4/ISO/AVC
Кодек/CABAC: Yes
Кодек/ReFrames: 4 frames
Размеры изображения: 1920 x 1080 (16:9)
Частота кадров: 23.976 fps
Частота кадров/тип: Constant
Битрейт/макс: 28.0 Mbps
Битрейт/тип: VBR
Цветовое пространство: YUV
Тип развёртки: Progressive
Колориметрия: 4:2:0
Глубина: 8 bits
:
Тип потока: Звук #1
Язык: Russian
Название: DTS 5.1 768 kbps
Длительность: 02:19:43.392
Кодек: DTS
Кодек/описание: Digital Theater Systems
Кодек/ID: A_DTS
Частота дискретизации: 48.0 KHz
Каналов: 6 channels
Битрейт: 768 Kbps
Битрейт/тип: Constant
Размер потока: 768 MiB (3%)
Глубина: 24 bits
Метод сжатия: Lossy
:
Тип потока: Звук #2
Язык: English
Название: DTS-HD Master Audio, 5.1, 3678 kbps, 24 bit, Lossless (1536 kbps core)
Длительность: 02:19:43.392
Кодек: DTS
Кодек/описание: Digital Theater Systems
Кодек/профиль: MA / Core
Кодек/ID: A_DTS
Частота дискретизации: 48.0 KHz
Каналов: 6 channels
Битрейт: Unknown / 1 509 Kbps
Битрейт/тип: Variable
Глубина: 24 bits
Метод сжатия: Lossless / Lossy
:
Тип потока: Звук #3
Язык: English
Название: Commentary by Director Michael Mann AC3 2.0 192 kbps
Длительность: 02:19:43.392
Кодек: AC-3
Кодек/описание: Audio Coding 3
Кодек/профиль: Dolby Digital
Кодек/ID: A_AC3
Частота дискретизации: 48.0 KHz
Каналов: 2 channels
Битрейт: 192 Kbps
Битрейт/тип: Constant
Размер потока: 192 MiB (1%)
Глубина: 16 bits
Метод сжатия: Lossy
:
Тип потока: Субтитры #1
Язык: Russian
Формат: UTF-8
Формат/подробно: UTF-8 Plain Text
Название: Full
:
Тип потока: Субтитры #2
Язык: Russian
Формат: UTF-8
Формат/подробно: UTF-8 Plain Text
Название: Commentary by Director Michael Mann
:
Тип потока: Субтитры #3
Язык: English
Формат: UTF-8
Формат/подробно: UTF-8 Plain Text
:
Тип потока: Субтитры #4
Язык: Ukrainian
Формат: UTF-8
Формат/подробно: UTF-8 Plain Text
:
Тип потока: Субтитры #5
Язык: Russian
Формат: UTF-8
Формат/подробно: UTF-8 Plain Text
Название: Tol'ko nadpisi

pb.wtf



Скачать Джонни Д. через торрент http://pic1.kartinco.top/images/12/favy9.jpg Скачать фильм Джонни Д. через торрент бесплантно в хорошем качестве Описание: Сюжет фильма повествует о легендарном грабителе банков Джоне Диллинджере. Дерзкие нападения сделали его выдающимся героем для ... 8.7 10 3
Торрент: Зарегистрирован [2020-03-08 22:06] · скачан: 10 раз
Статус: √ проверено
Размер: 22.19 GB
Как cкачать? Как скачать Джонни Д. через торрент | qTorrent

% Раздел Тема Автор DL S | L
Фильмы (Blu-ray, BD-Remux, HDDVD) [ 39.01 GB ] Джонни Д. / Public Enemies [2009 биография Blu-ray CEE 1080p] DUB Ворон Скачать
1 | 0
Фильмы 2009 [ 1.98 GB ] Джонни Д / Public Enemies [2009 HDRip][ лицензия ] SD Скачать
1 | 0
Фильмы [HD 720p, 1080p] (Хороший звук DUB, MVO) [ 13.14 GB ] Джонни Д. / Public Enemies [2009 биография BDRip 720p] DUB AVO VO _denis_100 Скачать
1 | 0
Фильмы [HD 720p, 1080p] (Хороший звук DUB, MVO) [ 7.76 GB ] Джонни Д / Public Enemies [2009 биография история BDRip 1080p + Оригинал] Бумер Скачать
1 | 0
Фильмы 2009 [ 1.46 GB ] Враги народа / Джонни Д / Public Enemies [2009 биография история. HDRip]Гоблин azagoth_666 Скачать
1 | 0
Фильмы [HD 720p, 1080p] (Хороший звук DUB, MVO) [ 12.7 GB ] Джонни Д / Public Enemies [1080] [2009 биография история BDRip] SLAYERMADES Скачать
1 | 0
Фильмы 2009 [ 2.1 GB ] Джонни Д / Public Enemies [2009 биография история BDRip] [720p-AVC] stalonе Скачать
1 | 0

28-11-2019 20:33  

Отключить всю рекламу на сайте

    Дорогой пользователь! Огромная просьба, поблагодарите релизера, оцените раздачу и оставьте свои комментарий, если Вы скачали Джонни Д. через торрент бесплатно! Внесите свою лепту в развитие PiratBit!
    Комментировать посты могут только пользователи прошедшие не сложную регистрацию
    Показать сообщения:    

    Джонни Д. через торрент
    Скачать бесплатно Джонни Д.
    Джонни Д. скачать торрент
    Джонни Д. смотреть онлайн
    Cкачать фильм Джонни Д. бесплатно
    Джонни Д. скачать торрент в хорошем качестве
    Джонни Д. смотреть онлайн бесплатно в хорошем качестве


    Вы не можете начинать темы
    Вы не можете отвечать на сообщения
    Вы не можете редактировать свои сообщения
    Вы не можете удалять свои сообщения
    Вы не можете голосовать в опросах
    Вы не можете прикреплять файлы к сообщениям
    Вы можете скачивать файлы