2 сезон

iTunes

MVO

1

2 сезон

iTunes

iTunes

1 сезон

RePack

30

Новинка

ВАЖНО

ИГРА 18+

pack

RePack

MK11
pack

Легкие деньги

RePack

jed

RePack

fifa19

RePack

RDR2

RePack

NEED FOR SPEED™ PAYBACK

4 сезон

9 сезон

Бесстыжие 9 сезон

Все сериалы

все сериалы на PB.wtf

RePack

FAR CRY 5

Anonymous, добрый день, мы не успеваем собрать деньги на оплату серверов за декабрь и январь, помогите нам пожалуйста в это трудное время. В качестве благодарности мы отключим Вам всю рекламу на сайте (укажите свой ник в строку Ваше имя)!

×
  
Magnet ссылка

Пробуждающая совесть 2: Дар змеи / Skammerens datter II: Slangens gave (Аск Хассельбальх) [2019, Фэнтези, драма, приключения, BDRip 1080p] DUB [iTunes] pb.wtf

Пробуждающая совесть 2: Дар змеи через торрент pb.wtf

Размер: 8 GB | Добавлен: 10 мес. назад | Торрент скачан:110 раз
Скачать  

09-03-2020 02:17 Пробуждающая совесть 2: Дар змеи Скачать торрент  

Пробуждающая совесть 2: Дар змеи | Skammerens datter II: Slangens gave
Год выпуска: 2019
Страна: Дания, Чехия
Студия: Nepenthe Film, Storm Films, Sirena Film
Жанр: Фэнтези, драма, приключения
Продолжительность: 01:43:52
Перевод: Дублированный | iTunes
Субтитры: Норвежские

Режиссер: Аск Хассельбальх

rating

В ролях: Якоб Офтебро, Эллан Хайд, Николас Бро, Сёрен Маллинг, Агнес Киттельсен, Андерс Хове, Деян Чукич, Стина Экблад, Джеймс МакВан, Эбигейл Райс, Ребекка Эмили Саттруп

Описание: Дина, дочь Пробуждающей Совесть, получила от мамы дар - сразу узнавать всю правду, лишь посмотрев человеку в глаза. И когда родных девочки похищает злой князь, она смело отправляется на их поиски вместе со своим вновь обретенным отцом - Чернокнижником, силу которого она также унаследовала.

Качество: BDRip 1080p
Формат: MKV

Видео: MPEG-4 AVC, 1920x804, 10.0 Mbit/s, 23.976 fps
Аудио #01: 48 kHz, AC3, 5.1, 384 Kbps | iTunes | RUS |
Аудио #02: 48 kHz, AC3, 5.1, 640 Kbps | Оригинал | GER |
скриншот  скриншот  скриншот  скриншот  скриншот  

General
Unique ID : 225342309717454289059241337589314312245 (0xA98759A6DA55EB644D70DF36B6B35835)
Complete name : E:Video111Skammerens.datter.II.Slangens.gave.BDRip.1080p.seleZen.mkv
Format : Matroska
Format version : Version 4
File size : 8.00 GiB
Duration : 1 h 43 min
Overall bit rate : 11.0 Mb/s
Movie name : Skammerens datter II: Slangens gave 2019 from селезень
Encoded date : UTC 2020-03-08 23:32:19
Writing application : mkvmerge v40.0.0 ('Old Town Road + Pony') 64-bit
Writing library : libebml v1.3.9 + libmatroska v1.5.2

Video
ID : 1
Format : AVC
Format/Info : Advanced Video Codec
Format profile : High@L4.1
Format settings : CABAC / 5 Ref Frames
Format settings, CABAC : Yes
Format settings, Reference : 5 frames
Codec ID : V_MPEG4/ISO/AVC
Duration : 1 h 43 min
Bit rate : 10 000 kb/s
Width : 1 920 pixels
Height : 804 pixels
Display aspect ratio : 2.40:1
Frame rate mode : Constant
Frame rate : 23.976 (24000/1001) FPS
Color space : YUV
Chroma subsampling : 4:2:0
Bit depth : 8 bits
Scan type : Progressive
Bits/(Pixel*Frame) : 0.270
Stream size : 7.25 GiB (91%)
Title : Encoded by seleZen
Writing library : x264 core 142 r2431+42 c69a006 tMod [8-bit@all X86_64]
Encoding settings : cabac=1 / ref=5 / deblock=1:-2:-2 / analyse=0x3:0x133 / me=umh / subme=10 / psy=1 / fade_compensate=0.00 / psy_rd=1.00:0.00 / mixed_ref=1 / me_range=32 / chroma_me=1 / trellis=2 / 8x8dct=1 / cqm=0 / deadzone=21,11 / fast_pskip=0 / chroma_qp_offset=-2 / threads=24 / lookahead_threads=4 / sliced_threads=0 / nr=0 / decimate=0 / interlaced=0 / bluray_compat=0 / constrained_intra=0 / fgo=0 / bframes=8 / b_pyramid=2 / b_adapt=2 / b_bias=0 / direct=3 / weightb=1 / open_gop=0 / weightp=2 / keyint=240 / keyint_min=23 / scenecut=40 / intra_refresh=0 / rc_lookahead=50 / rc=2pass / mbtree=0 / bitrate=10000 / ratetol=1.0 / qcomp=0.60 / qpmin=0:0:0 / qpmax=51:51:51 / qpstep=4 / cplxblur=20.0 / qblur=0.5 / vbv_maxrate=50000 / vbv_bufsize=62500 / nal_hrd=none / filler=0 / ip_ratio=1.40 / pb_ratio=1.30 / aq=3:0.80 / aq-sensitivity=10.00 / aq-factor=1.00:1.00:1.00 / aq2=0 / aq3=0
Language : English
Default : Yes
Forced : No

Audio #1
ID : 2
Format : AC-3
Format/Info : Audio Coding 3
Commercial name : Dolby Digital
Codec ID : A_AC3
Duration : 1 h 43 min
Bit rate mode : Constant
Bit rate : 384 kb/s
Channel(s) : 6 channels
Channel layout : L R C LFE Ls Rs
Sampling rate : 48.0 kHz
Frame rate : 31.250 FPS (1536 SPF)
Compression mode : Lossy
Stream size : 285 MiB (3%)
Title : iTunes
Language : Russian
Service kind : Complete Main
Default : Yes
Forced : Yes

Audio #2
ID : 3
Format : AC-3
Format/Info : Audio Coding 3
Commercial name : Dolby Digital
Codec ID : A_AC3
Duration : 1 h 43 min
Bit rate mode : Constant
Bit rate : 640 kb/s
Channel(s) : 6 channels
Channel layout : L R C LFE Ls Rs
Sampling rate : 48.0 kHz
Frame rate : 31.250 FPS (1536 SPF)
Compression mode : Lossy
Stream size : 475 MiB (6%)
Title : Original
Language : German
Service kind : Complete Main
Default : No
Forced : No

Text
ID : 4
Format : UTF-8
Codec ID : S_TEXT/UTF8
Codec ID/Info : UTF-8 Plain Text
Duration : 1 h 37 min
Bit rate : 29 b/s
Count of elements : 639
Stream size : 20.9 KiB (0%)
Title : Full
Language : Norwegian
Default : No
Forced : No

Menu
00:00:00.000 : de:Глава 01
00:02:02.914 : de:Глава 02
00:10:14.113 : de:Глава 03
00:18:12.925 : de:Глава 04
00:32:00.627 : de:Глава 05
00:39:47.677 : de:Глава 06
00:48:49.635 : de:Глава 07
00:57:04.171 : de:Глава 08
01:06:02.584 : de:Глава 09
01:15:38.200 : de:Глава 10
01:27:21.945 : de:Глава 11
01:38:34.534 : de:Глава 12

pb.wtf



Скачать Пробуждающая совесть 2: Дар змеи через торрент https://img10.lostpic.net/2020/03/08/c575057f248a78c1bea6dcbda3ae5e3b.jpg Скачать фильм Пробуждающая совесть 2: Дар змеи через торрент бесплантно в хорошем качестве Описание: Дина, дочь Пробуждающей Совесть, получила от мамы дар - сразу узнавать всю правду, лишь посмотрев человеку в глаза. И когда ... 10 10 4
Торрент: Зарегистрирован [2020-03-09 02:17] · скачан: 110 раз
Статус: √ проверено
Размер: 8 GB
Как cкачать? Как скачать Пробуждающая совесть 2: Дар змеи через торрент | UTorrent

% Раздел Тема Автор DL S | L
Фильмы [HD 720p, 1080p] (Хороший звук DUB, MVO) [ 4.37 GB ] Пробуждающая совесть 2: Дар змеи / Skammerens datter II: Slangens gave [2019 BDRip 720p] bober100 Скачать
1 | 0
Фильмы 2019-2020 [DVDrip, WEB-DLRip, HDrip] (DUB, MVO) [ 1.46 GB ] Пробуждающая совесть 2: Дар змеи / Skammerens datter II: Slangens gave [2019 BDRip] bober100 Скачать
3 | 0
Фильмы (Blu-ray, BD-Remux, HDDVD) [ 17.67 GB ] Пробуждающая совесть 2: Дар змеи / Skammerens datter II: Slangens gave [2019 BD Remux 1080p] bober100 Скачать
1 | 0
Фильмы (WEB-DL 720p, 1080p) [ 3.59 GB ] Пробуждающая совесть 2: Дар змеи / Skammerens datter II: Slangens gave [2019 WEB-DL 1080p] bober100 Скачать
2 | 0

28-11-2019 20:33  

Отключить всю рекламу на сайте

09-03-2020 08:33 Пробуждающая совесть 2: Дар змеи Скачать торрент  

вот хорошо же в этих недорогих фентези дети устроились- дар провидицы-= в наследство, силу чернокнижника- в наследство...
А родителям как- ну ладно, провидиц там еще как то по роду, но чернокнижие.... этож человеку сколько изучить надо, сколько купить- а ведь для этого приходилось всякое творить- чуть ли не душу там продать кому... А тут - на те, на блюдечку...тьфу...
А ты иди сперва поунижайся в учениках, кошек там попотроши, говно ящериц пособирай....побои, унижение, ненависть...
Эх, эта золотая молодежь..pb.wtf



    Дорогой пользователь! Огромная просьба, поблагодарите релизера, оцените раздачу и оставьте свои комментарий, если Вы скачали Пробуждающая совесть 2: Дар змеи через торрент бесплатно! Внесите свою лепту в развитие PiratBit!
    Комментировать посты могут только пользователи прошедшие не сложную регистрацию
    Показать сообщения:    

    Пробуждающая совесть 2: Дар змеи через торрент
    Скачать бесплатно Пробуждающая совесть 2: Дар змеи
    Пробуждающая совесть 2: Дар змеи скачать торрент
    Пробуждающая совесть 2: Дар змеи смотреть онлайн
    Cкачать фильм Пробуждающая совесть 2: Дар змеи бесплатно
    Пробуждающая совесть 2: Дар змеи скачать торрент в хорошем качестве
    Пробуждающая совесть 2: Дар змеи смотреть онлайн бесплатно в хорошем качестве


    Вы не можете начинать темы
    Вы не можете отвечать на сообщения
    Вы не можете редактировать свои сообщения
    Вы не можете удалять свои сообщения
    Вы не можете голосовать в опросах
    Вы не можете прикреплять файлы к сообщениям
    Вы можете скачивать файлы