Ссылка на приватное зеркало нашего сайта всего за 1$. Внимание количество ограничено!!!

2 сезон

iTunes

1 сезон

1

iTunes

iTunes

iTunes

1 сезон

RePack

30

ИГРА 18+

pack

ВАЖНО

!!Акция!!

Alien_RageХит недели

RePack

MK11
pack

Забери бонус

RePack

jed

!!Акция!!

Alien_Rage

RePack

fifa19

RePack

Assassins Creed: Odyssey

RePack

NEED FOR SPEED™ PAYBACK

4 сезон

9 сезон

Бесстыжие 9 сезон

Все сериалы

все сериалы на PB.wtf

RePack

FAR CRY 5
  

Беглянка / Сезон: 2 / Серии: 1-4 из 4 (Алина Чеботарёва) [2020, Мелодрама, WEB-DLRip] pb.wtf

Беглянка через торрент pb.wtf

Размер: 2.22 GB | Добавлен: 7 мес. назад | Торрент скачан:36 раз
Скачать  

09-03-2020 02:33 Беглянка Скачать торрент  

Беглянка 2
Год выпуска: 2020
Страна: Россия, Украина
Жанр: Мелодрама
Продолжительность: ~ 00:45:00 серия
Перевод: Не требуется
Субтитры: отсутствуют

Режиссер: Алина Чеботарёва



В ролях: Анна Миклош, Александр Никитин, Сергей Радченко (III), Дарья Творонович, Пётр Нинёвский, Алиса Дебабова-Лукшина, Ева Шевченко-Головко, Олеся Власова

Описание: Уже знакомые и полюбившиеся нам герои – Анна Колесниченко и Максим Горский – прожили насыщенный и успешный год. Их отношения окрепли и вот-вот должны перейти в финальную стадию – Максим готовится сделать Анне официальное предложение руки и сердца. Но судьба решает еще раз проверить на прочность их любовь. Горскому она приготовила испытание прошлым, Анне – будущим...

Качество: WEB-DLRip
Формат: AVI

Видео: XviD, ~ 1599 Кбит/с, 720x400, 25 кадр/с
Аудио: AC3, 2 ch, 192 Кбит/с
скриншот  скриншот  скриншот  скриншот  скриншот  

General
Complete name : C:05.Беглянка.s02.E01.(2020).WEB-DLRip.by.Nicodem.Files-x.avi
Format : AVI
Format/Info : Audio Video Interleave
File size : 570 MiB
Duration : 44mn 16s
Overall bit rate : 1 800 Kbps
Writing application : VirtualDubMod 1.5.10.3 | www.virtualdub-fr.org || (build 2550/release)
Writing library : VirtualDubMod build 2550/release

Video
ID : 0
Format : MPEG-4 Visual
Format profile : Advanced Simple@L5
Format settings, BVOP : 1
Format settings, QPel : No
Format settings, GMC : No warppoints
Format settings, Matrix : Custom
Codec ID : XVID
Codec ID/Hint : XviD
Duration : 44mn 16s
Bit rate : 1 599 Kbps
Width : 720 pixels
Height : 400 pixels
Display aspect ratio : 16:9
Frame rate : 25.000 fps
Color space : YUV
Chroma subsampling : 4:2:0
Bit depth : 8 bits
Scan type : Progressive
Compression mode : Lossy
Bits/(Pixel*Frame) : 0.222
Stream size : 506 MiB (89%)
Writing library : XviD 73

Audio
ID : 1
Format : AC-3
Format/Info : Audio Coding 3
Mode extension : CM (complete main)
Codec ID : 2000
Duration : 44mn 16s
Bit rate mode : Constant
Bit rate : 192 Kbps
Channel(s) : 2 channels
Channel positions : Front: L R
Sampling rate : 48.0 KHz
Bit depth : 16 bits
Compression mode : Lossy
Stream size : 60.8 MiB (11%)
Alignment : Split accross interleaves
Interleave, duration : 40 ms (1.00 video frame)
Interleave, preload duration : 500 ms

pb.wtf



Скачать Беглянка через торрент https://i111.fastpic.ru/big/2020/0308/fa/564b66282e2fa391a5b206342ea690fa.jpg Скачать фильм Беглянка через торрент бесплантно в хорошем качестве Описание: Уже знакомые и полюбившиеся нам герои – Анна Колесниченко и Максим Горский – прожили насыщенный и успешный год. Их отношения ... 10 10 4
Торрент: Зарегистрирован [2020-03-09 02:33] · скачан: 36 раз
Статус: √ проверено
Размер: 2.22 GB
Как cкачать? Как скачать Беглянка через торрент | qTorrent

28-11-2019 20:33  

Отключить всю рекламу на сайте

    Дорогой пользователь! Огромная просьба, поблагодарите релизера, оцените раздачу и оставьте свои комментарий, если Вы скачали Беглянка через торрент бесплатно! Внесите свою лепту в развитие PiratBit!
    Комментировать посты могут только пользователи прошедшие не сложную регистрацию
    Показать сообщения:    

    Беглянка через торрент
    Скачать бесплатно Беглянка
    Беглянка скачать торрент
    Беглянка смотреть онлайн
    Cкачать фильм Беглянка бесплатно
    Беглянка скачать торрент в хорошем качестве
    Беглянка смотреть онлайн бесплатно в хорошем качестве


    Вы не можете начинать темы
    Вы не можете отвечать на сообщения
    Вы не можете редактировать свои сообщения
    Вы не можете удалять свои сообщения
    Вы не можете голосовать в опросах
    Вы не можете прикреплять файлы к сообщениям
    Вы можете скачивать файлы