Ссылка на приватное зеркало нашего сайта всего за 1$. Внимание количество ограничено!!!

2 сезон

iTunes

1 сезон

1

iTunes

iTunes

iTunes

1 сезон

RePack

30

ИГРА 18+

pack

ВАЖНО

!!Акция!!

Alien_RageХит недели

RePack

MK11
pack

Забери бонус

RePack

jed

!!Акция!!

Alien_Rage

RePack

fifa19

RePack

Assassins Creed: Odyssey

RePack

NEED FOR SPEED™ PAYBACK

4 сезон

9 сезон

Бесстыжие 9 сезон

Все сериалы

все сериалы на PB.wtf

RePack

FAR CRY 5
  

Дельфин / Серии: 1-4 из 4 (Мурад Алиев) [2020, Детектив, криминал, SATRip] pb.wtf

Дельфин через торрент pb.wtf

Размер: 2.51 GB | Добавлен: 7 мес. назад | Торрент скачан:56 раз
Скачать  

09-03-2020 13:26 Дельфин Скачать торрент  

Дельфин
Год выпуска: 2020
Страна: Россия
Жанр: Детектив, криминал
Продолжительность: ~ 00:50:30
Субтитры: отсутствуют

Режиссер: Мурад Алиев



В ролях: Сергей Жарков, Дарья Румянцева, Макс Максимов, Сергей Колос, Алёша Шаблюк, Кира Кауфман, Денис Синявский, Алексей Байдаков, Евгений Карпов, Денис Старков, Алексей Штукин, Василий Щипицын, Андрей Перович, Игорь Головин, Дмитрий Собачкин, Дмитрий Олейник, Алексей Одинг, Татьяна Захарова, Валентина Ведерникова, Игорь Угаров, Александр Кононец, Сергей Рябчук, Тимофей Милош

Описание: В небольшой приморский городок Южноморск из столицы возвращается бывший житель этих мест молодой опер Андрей Кораблев. Повод для возвращения в город своего детства у Андрея печальный – он приехал хоронить единственного близкого человека, своего деда, старого рыбака, недавно погибшего в море. В городе Андрея помнят. Когда-то он служил в местном УМВД, у него осталось много друзей и знакомых по обе стороны закона. Общаясь с ними, Андрей приходит к выводу, что смерть Деда не была случайной...

Качество: SATRip
Формат: AVI

Видео: XviD, ~ 1591 Кбит/с, 720x400, 25 кадр/с
Аудио: AC3, 2 ch, 192 Кбит/с
скриншот  скриншот  скриншот  скриншот  

General
Complete name : C:01.Дельфин.(2019).SATRip.by.Nicodem.Files-x.avi
Format : AVI
Format/Info : Audio Video Interleave
File size : 648 MiB
Duration : 50mn 30s
Overall bit rate : 1 793 Kbps
Writing application : VirtualDubMod 1.5.10.3 | www.virtualdub-fr.org || (build 2550/release)
Writing library : VirtualDubMod build 2550/release

Video
ID : 0
Format : MPEG-4 Visual
Format profile : Advanced Simple@L5
Format settings, BVOP : 1
Format settings, QPel : No
Format settings, GMC : No warppoints
Format settings, Matrix : Custom
Codec ID : XVID
Codec ID/Hint : XviD
Duration : 50mn 30s
Bit rate : 1 591 Kbps
Width : 720 pixels
Height : 400 pixels
Display aspect ratio : 16:9
Frame rate : 25.000 fps
Color space : YUV
Chroma subsampling : 4:2:0
Bit depth : 8 bits
Scan type : Progressive
Compression mode : Lossy
Bits/(Pixel*Frame) : 0.221
Stream size : 575 MiB (89%)
Writing library : XviD 73

Audio
ID : 1
Format : AC-3
Format/Info : Audio Coding 3
Mode extension : CM (complete main)
Codec ID : 2000
Duration : 50mn 29s
Bit rate mode : Constant
Bit rate : 192 Kbps
Channel(s) : 2 channels
Channel positions : Front: L R
Sampling rate : 48.0 KHz
Bit depth : 16 bits
Compression mode : Lossy
Stream size : 69.4 MiB (11%)
Alignment : Split accross interleaves
Interleave, duration : 40 ms (1.00 video frame)
Interleave, preload duration : 500 ms

pb.wtf



Скачать Дельфин через торрент https://i111.fastpic.ru/big/2020/0309/40/35265f1f7b166a58414911dc68890140.jpg Скачать фильм Дельфин через торрент бесплантно в хорошем качестве Описание: В небольшой приморский городок Южноморск из столицы возвращается бывший житель этих мест молодой опер Андрей Кораблев. Повод для ... 9.6 10 5
Торрент: Зарегистрирован [2020-03-09 13:32] · скачан: 56 раз
Статус: √ проверено
Размер: 2.51 GB
Как cкачать? Как скачать Дельфин через торрент | qTorrent

% Раздел Тема Автор DL S | L
Наши сериалы [ 8.83 GB ] Дельфин / Серии: 1-4 из 4 [2020 WEBRip 1080p] bober100 Скачать
1 | 0
Наши сериалы [ 3.13 GB ] Дельфин / Серии: 1-4 из 4 [2020 WEBRip-AVC] bober100 Скачать
1 | 0
Наши сериалы [ 2.57 GB ] Дельфин / Серии: 1-4 из 4 [2020 WEBRip] bober100 Скачать
1 | 0
Наши сериалы [ 2.39 GB ] Дельфин / Серии: 1-4 из 4 [2020 SATRip-AVC] aleksan55 Скачать
1 | 0

28-11-2019 20:33  

Отключить всю рекламу на сайте

    Дорогой пользователь! Огромная просьба, поблагодарите релизера, оцените раздачу и оставьте свои комментарий, если Вы скачали Дельфин через торрент бесплатно! Внесите свою лепту в развитие PiratBit!
    Комментировать посты могут только пользователи прошедшие не сложную регистрацию
    Показать сообщения:    

    Дельфин через торрент
    Скачать бесплатно Дельфин
    Дельфин скачать торрент
    Дельфин смотреть онлайн
    Cкачать фильм Дельфин бесплатно
    Дельфин скачать торрент в хорошем качестве
    Дельфин смотреть онлайн бесплатно в хорошем качестве


    Вы не можете начинать темы
    Вы не можете отвечать на сообщения
    Вы не можете редактировать свои сообщения
    Вы не можете удалять свои сообщения
    Вы не можете голосовать в опросах
    Вы не можете прикреплять файлы к сообщениям
    Вы можете скачивать файлы