Ссылка на приватное зеркало нашего сайта всего за 1$. Внимание количество ограничено!!!

2 сезон

iTunes

1 сезон

1

2 сезон

2 сезон

iTunes

1 сезон

RePack

30

Ultimate

ВАЖНО

ИГРА 18+

pack

RePack

MK11
pack

Забери бонус

RePack

jed

!!Акция!!

Alien_Rage

RePack

fifa19

RePack

Assassins Creed: Odyssey

RePack

NEED FOR SPEED™ PAYBACK

4 сезон

9 сезон

Бесстыжие 9 сезон

Все сериалы

все сериалы на PB.wtf

RePack

FAR CRY 5
  

Звук тишины / The Sound of Silence (Майкл Тибурски) [2019, Драма, WEB-DL 720p] MVO [iTunes] pb.wtf

Звук тишины через торрент pb.wtf

Размер: 2.95 GB | Добавлен: 8 мес. назад | Торрент скачан:18 раз
Скачать  

09-03-2020 14:52 Звук тишины Скачать торрент  

Звук тишины | The Sound of Silence
Год выпуска: 2019
Страна: США
Жанр: Драма
Продолжительность: 01:27:25
Перевод: Профессиональный многоголосый | iTunes
Субтитры: Russian (Forced, Full), Ukrainian (Full), English (SDH)

Режиссер: Майкл Тибурски

rating

В ролях: Питер Сарсгаард, Рашида Джонс, Тони Револори, Остин Пендлтон, Брюс Олтмен, Тина Бенко, Теодор Булукос, Адит Дилип, Перрин Драмм, Элисон Фрайзер

Описание: Питер Люциан - представитель одной из самых экзотических профессий на свете: этот замкнутый, холодный, всегда с иголочки одетый в твид умник с академическим образованием в области теории классической музыки стал настройщиком. Только не гитар и роялей, а домов - специалистом по саунду квартир, способным устранить (или хотя бы сгладить) те звуковые рельефы, что вызывают беспокойство и уныние. Новой клиенткой Питера становится Эллен, только что переехавшая в Нью-Йорк и страдающая синдромом хронической усталости.

Качество: WEB-DL 720p
Формат: MKV

Видео: MPEG-4 AVC, 4064 Кбит/с, 1280x634
Аудио#1: Русский (AC3, 6 ch, 384 Кбит/с)
Аудио#2: английский (AC3, 6 ch, 384 Кбит/с)
скриншот  скриншот  скриншот  скриншот  

Complete name : D:\Zvuk.tishinyi.2019.720p.WEB-DL.ELEKTRI4KA.UNIONGANG.mkv
Format : Matroska
Format version : Version 4 / Version 2
File size : 2.95 GiB
Duration : 1 h 27 min
Overall bit rate : 4 834 kb/s
Movie name : ELEKTRI4KA.UNIONGANG
Encoded date : UTC 2020-03-09 00:14:45
Writing application : mkvmerge v8.3.0 ('Over the Horizon') 64bit
Writing library : libebml v1.3.1 + libmatroska v1.4.2

Video
ID : 1
Format : AVC
Format/Info : Advanced Video Codec
Format profile : High@L3.1
Format settings, CABAC : No
Format settings, Reference frames : 2 frames
Codec ID : V_MPEG4/ISO/AVC
Duration : 1 h 27 min
Bit rate : 4 064 kb/s
Width : 1 280 pixels
Height : 634 pixels
Display aspect ratio : 2.019
Frame rate mode : Constant
Frame rate : 23.976 (23976/1000) FPS
Color space : YUV
Chroma subsampling : 4:2:0
Bit depth : 8 bits
Scan type : Progressive
Bits/(Pixel*Frame) : 0.209
Stream size : 2.48 GiB (84%)
Language : English
Default : Yes
Forced : No
Color range : Limited
Color primaries : BT.709
Transfer characteristics : BT.709
Matrix coefficients : BT.709

Audio #1
ID : 2
Format : AC-3
Format/Info : Audio Coding 3
Mode extension : CM (complete main)
Format settings, Endianness : Big
Codec ID : A_AC3
Duration : 1 h 27 min
Bit rate mode : Constant
Bit rate : 384 kb/s
Channel(s) : 6 channels
Channel positions : Front: L C R, Side: L R, LFE
Sampling rate : 48.0 kHz
Frame rate : 31.250 FPS (1536 spf)
Bit depth : 16 bits
Compression mode : Lossy
Stream size : 240 MiB (8%)
Title : iTunes
Language : Russian
Default : Yes
Forced : No

Audio #2
ID : 3
Format : AC-3
Format/Info : Audio Coding 3
Mode extension : CM (complete main)
Format settings, Endianness : Big
Codec ID : A_AC3
Duration : 1 h 27 min
Bit rate mode : Constant
Bit rate : 384 kb/s
Channel(s) : 6 channels
Channel positions : Front: L C R, Side: L R, LFE
Sampling rate : 48.0 kHz
Frame rate : 31.250 FPS (1536 spf)
Bit depth : 16 bits
Compression mode : Lossy
Stream size : 240 MiB (8%)
Language : English
Default : No
Forced : No

Text #1
ID : 4
Format : UTF-8
Codec ID : S_TEXT/UTF8
Codec ID/Info : UTF-8 Plain Text
Duration : 1 h 22 min
Bit rate : 1 b/s
Count of elements : 13
Stream size : 774 Bytes (0%)
Title : Forced
Language : Russian
Default : Yes
Forced : No

Text #2
ID : 5
Format : UTF-8
Codec ID : S_TEXT/UTF8
Codec ID/Info : UTF-8 Plain Text
Duration : 1 h 26 min
Bit rate : 69 b/s
Count of elements : 817
Stream size : 43.8 KiB (0%)
Title : Full
Language : Russian
Default : No
Forced : No

Text #3
ID : 6
Format : UTF-8
Codec ID : S_TEXT/UTF8
Codec ID/Info : UTF-8 Plain Text
Duration : 1 h 26 min
Bit rate : 70 b/s
Count of elements : 817
Stream size : 44.9 KiB (0%)
Title : Full
Language : Ukrainian
Default : No
Forced : No

Text #4
ID : 7
Format : UTF-8
Codec ID : S_TEXT/UTF8
Codec ID/Info : UTF-8 Plain Text
Duration : 1 h 20 min
Bit rate : 48 b/s
Count of elements : 797
Stream size : 28.6 KiB (0%)
Language : English
Default : No
Forced : No

Text #5
ID : 8
Format : UTF-8
Codec ID : S_TEXT/UTF8
Codec ID/Info : UTF-8 Plain Text
Duration : 1 h 20 min
Bit rate : 48 b/s
Count of elements : 796
Stream size : 28.5 KiB (0%)
Language : English
Default : No
Forced : No

Menu
00:00:00.000 : en:1
00:04:44.993 : en:2
00:10:15.615 : en:3
00:15:48.114 : en:4
00:20:54.503 : en:5
00:26:23.122 : en:6
00:31:45.194 : en:7
00:36:07.079 : en:8
00:42:36.468 : en:9
00:46:46.426 : en:10
00:53:06.848 : en:11
00:57:28.775 : en:12
01:04:30.863 : en:13
01:10:33.392 : en:14
01:16:01.094 : en:15
01:19:58.456 : en:16

pb.wtf



Скачать Звук тишины через торрент https://i4.imageban.ru/out/2020/03/09/8561dc8bc0185dcd9d6e61de24942e38.png Скачать фильм Звук тишины через торрент бесплантно в хорошем качестве Описание: Питер Люциан - представитель одной из самых экзотических профессий на свете: этот замкнутый, холодный, всегда с иголочки одетый в ... 10 10 2
Торрент: Зарегистрирован [2020-03-09 14:52] · скачан: 18 раз
Статус: √ проверено
Размер: 2.95 GB
Как cкачать? Как скачать Звук тишины через торрент | qTorrent

% Раздел Тема Автор DL S | L
Фильмы 2019-2020 [DVDrip, WEB-DLRip, HDrip] (DUB, MVO) [ 1.38 GB ] Звук тишины / The Sound of Silence [2019 WEB-DLRip] MVO bober100 Скачать
2 | 0
Фильмы (WEB-DL 720p, 1080p) [ 4.42 GB ] Звук тишины / The Sound of Silence [2019 WEB-DL 1080p] MVO bober100 Скачать
2 | 0

28-11-2019 20:33  

Отключить всю рекламу на сайте

    Дорогой пользователь! Огромная просьба, поблагодарите релизера, оцените раздачу и оставьте свои комментарий, если Вы скачали Звук тишины через торрент бесплатно! Внесите свою лепту в развитие PiratBit!
    Комментировать посты могут только пользователи прошедшие не сложную регистрацию
    Показать сообщения:    

    Звук тишины через торрент
    Скачать бесплатно Звук тишины
    Звук тишины скачать торрент
    Звук тишины смотреть онлайн
    Cкачать фильм Звук тишины бесплатно
    Звук тишины скачать торрент в хорошем качестве
    Звук тишины смотреть онлайн бесплатно в хорошем качестве


    Вы не можете начинать темы
    Вы не можете отвечать на сообщения
    Вы не можете редактировать свои сообщения
    Вы не можете удалять свои сообщения
    Вы не можете голосовать в опросах
    Вы не можете прикреплять файлы к сообщениям
    Вы можете скачивать файлы