2 сезон

iTunes

1 сезон

1

iTunes

iTunes

iTunes

1 сезон

RePack

30

ИГРА 18+

pack

ВАЖНО

!!Акция!!

Alien_RageХит недели

RePack

MK11
pack

Забери бонус

RePack

jed

!!Акция!!

Alien_Rage

RePack

fifa19

RePack

Assassins Creed: Odyssey

RePack

NEED FOR SPEED™ PAYBACK

4 сезон

9 сезон

Бесстыжие 9 сезон

Все сериалы

все сериалы на PB.wtf

RePack

FAR CRY 5
  

Магомаев / Сезон: 1 / Серии: 1-8 из 8 (Роман Прыгунов, Дмитрий Тюрин) [2020, Биография, драма, музыка, HDTVRip] pb.wtf

Магомаев через торрент pb.wtf

Размер: 4.8 GB | Добавлен: 7 мес. назад | Торрент скачан:55 раз
Скачать  

09-03-2020 16:47 Магомаев Скачать торрент  

Магомаев
Год выпуска: 2020
Страна: Россия
Жанр: Биография, драма, музыка
Продолжительность: ~ 00:45:00 серия
Перевод: Не требуется
Субтитры: отсутствуют

Режиссер: Роман Прыгунов, Дмитрий Тюрин



В ролях: Милош Бикович, Ирина Антоненко, Светлана Устинова, Александр Нестеров, Алёна Ивченко, Алина Алексеева (II), Сергей Тэсслер, Елизавета Лотова, Дарья Калмыкова, Артём Волобуев, Максим Иванов (II), Мария Козакова, Маруся Климова, Елена Муравьёва, Павел Баршак, Илья Ермолов, Мария Шалаева, Илья Резник, Митя Лабуш

Описание: Конец 1960-ых, разгар брежневской эпохи. Муслим Магомаев во время записи концертной программы знакомится с очаровательной оперной певицей, Тамарой Синявской. Между королём советской эстрады и восходящей звездой Большого театра с первого взгляда пробегает искра, которая становится началом большой любви. Однако Тамара замужем, да и Муслим не свободен... Но у настоящей любви нет преград, и судьба вновь сводит влюбленных. На этот раз в Париже.

Качество: HDTVRip
Формат: AVI

Видео: XviD, ~ 1600 Кбит/с, 720x368, 25 кадр/с
Аудио: Русский (AC3, 2 ch, 192 Кбит/с)
скриншот  скриншот  скриншот  скриншот  

Общее
Полное имя : D:Magomaev.HDTVRip.GeneralFilm1.Magomaev.HDTVRip.GeneralFilm.avi
Формат : AVI
Формат/Информация : Audio Video Interleave
Размер файла : 596 Мбайт
Продолжительность : 46 м.
Общий поток : 1801 Кбит/сек
Программа кодирования : VirtualDubMod 1.5.10.3 | www.virtualdub-fr.org || (build 2550/release)
Библиотека кодирования : VirtualDubMod build 2550/release

Видео
Идентификатор : 0
Формат : MPEG-4 Visual
Профиль формата : Advanced Simple@L5
Параметр BVOP формата : 1
Параметр QPel формата : Нет
Параметр GMC формата : Без точки перехода
Параметр матрицы формата : Выборочная
Идентификатор кодека : XVID
Идентификатор кодека/Подсказка : XviD
Продолжительность : 46 м.
Битрейт : 1600 Кбит/сек
Ширина : 720 пикселей
Высота : 368 пикселей
Соотношение сторон : 1,957
Частота кадров : 25,000 кадров/сек
Цветовое пространство : YUV
Субдискретизация насыщенности : 4:2:0
Битовая глубина : 8 бит
Тип развёртки : Прогрессивная
Метод сжатия : С потерями
Бит/(Пиксели*Кадры) : 0.241
Размер потока : 530 Мбайт (89%)
Библиотека кодирования : XviD 1.2.1 (UTC 2008-12-04)

Аудио
Идентификатор : 1
Формат : AC-3
Формат/Информация : Audio Coding 3
Расширение режима : CM (complete main)
Параметр Endianness формата : Big
Идентификатор кодека : 2000
Продолжительность : 46 м.
Вид битрейта : Постоянный
Битрейт : 192 Кбит/сек
Каналы : 2 канала
Расположение каналов : Front: L R
Частота : 48,0 КГц
Битовая глубина : 16 бит
Метод сжатия : С потерями
Размер потока : 63,6 Мбайт (11%)
Выравнивание : Разделение по промежуткам
Продолжительность промежутка : 40 мс. (1,00 видеокадр)
Время предзагрузки промежутка : 500 мс.

Раздача ведётся путём добавления новых серий, при каждом добавлении создаётся новый торрент. Чтобы начать докачку новой серии, пользователям необходимо сделать следующее:

- Остановить скачивание.
- Удалить старый торрент у себя из клиента (старые серии удалять не надо).
- Скачать новый торрент и запустить его у себя в клиенте вместо старого, при этом указать клиенту путь в старую папку куда и должно происходить скачивание новых серий.

Ваш клиент при этом должен произвести хеширование (проверку) старой папки (если не производит сам - помогите ему сделать это), и будет докачивать только те серии которых у вас ещё нет. Старые серии при этом не удаляются, а продолжают раздаваться!
Если вы уже удалили старые серии, то предотвратить повторную закачку старых серий можно, отжав галочку в соответствующих местах при запуске нового торрента. По возможности, желательно не удалять старые серии как можно дольше, чтобы релизер не столько продолжал раздавать старые серии, а смог сконцентрироваться на новых.
pb.wtf



Скачать Магомаев через торрент http://d.radikal.ru/d19/2003/bb/8eb95208f548.jpg Скачать фильм Магомаев через торрент бесплантно в хорошем качестве Описание: Конец 1960-ых, разгар брежневской эпохи. Муслим Магомаев во время записи концертной программы знакомится с очаровательной оперной ... 10 10 4
Торрент: Зарегистрирован [2020-03-20 06:04] · скачан: 55 раз
Статус: √ проверено
Размер: 4.8 GB
Как cкачать? Как скачать Магомаев через торрент | qTorrent

% Раздел Тема Автор DL S | L
Наши сериалы [ 14.83 GB ] Магомаев / Сезон: 1 / Серии: 1-8 из 8 [2020 Биография музыка HDTV 1080i] bober100 Скачать
1 | 0
Наши сериалы [ 4.69 GB ] Магомаев / Сезон: 1 / Серии: 1-8 из 8 [2020 Биография музыка SATRip] bober100 Скачать
1 | 0
Наши сериалы [ 13.46 GB ] Магомаев / Сезон: 1 / Серии: 1-8 из 8 [2020 Биография музыка WEB-DL 1080p] bober100 Скачать
1 | 0
Наши сериалы [ 5.84 GB ] Магомаев / Сезон: 1 / Серии: 1-8 из 8 [2020 Биография музыка HDTVRip-AVC] bober100 Скачать
1 | 0
Наши сериалы [ 9.84 GB ] Магомаев / Сезон: 1 / Серии: 1-8 из 8 [2020 Биография музыка HDTVRip 720p] bober100 Скачать
1 | 0

28-11-2019 20:33  

Отключить всю рекламу на сайте

    Дорогой пользователь! Огромная просьба, поблагодарите релизера, оцените раздачу и оставьте свои комментарий, если Вы скачали Магомаев через торрент бесплатно! Внесите свою лепту в развитие PiratBit!
    Комментировать посты могут только пользователи прошедшие не сложную регистрацию
    Показать сообщения:    

    Магомаев через торрент
    Скачать бесплатно Магомаев
    Магомаев скачать торрент
    Магомаев смотреть онлайн
    Cкачать фильм Магомаев бесплатно
    Магомаев скачать торрент в хорошем качестве
    Магомаев смотреть онлайн бесплатно в хорошем качестве


    Вы не можете начинать темы
    Вы не можете отвечать на сообщения
    Вы не можете редактировать свои сообщения
    Вы не можете удалять свои сообщения
    Вы не можете голосовать в опросах
    Вы не можете прикреплять файлы к сообщениям
    Вы можете скачивать файлы