Ссылка на приватное зеркало нашего сайта всего за 1$. Внимание количество ограничено!!!

2 сезон

iTunes

1 сезон

1

iTunes

iTunes

iTunes

1 сезон

RePack

30

ИГРА 18+

pack

ВАЖНО

!!Акция!!

Alien_RageХит недели

RePack

MK11
pack

Забери бонус

RePack

jed

!!Акция!!

Alien_Rage

RePack

fifa19

RePack

Assassins Creed: Odyssey

RePack

NEED FOR SPEED™ PAYBACK

4 сезон

9 сезон

Бесстыжие 9 сезон

Все сериалы

все сериалы на PB.wtf

RePack

FAR CRY 5
  

Магомаев / Сезон: 1 / Серии: 1-8 из 8 (Роман Прыгунов, Дмитрий Тюрин) [2020, Биография, драма, музыка, HDTVRip 720p] pb.wtf

Магомаев через торрент pb.wtf

Раздают: 1 [ 0 KB/s ]
Размер: 9.84 GB | Добавлен: 7 мес. назад | Торрент скачан:80 раз
Скачать  

09-03-2020 17:33 Магомаев Скачать торрент  

Магомаев
Год выпуска: 2020
Страна: Россия
Жанр: Биография, драма, музыка
Продолжительность: ~ 00:45:00 серия
Перевод: Не требуется
Субтитры: отсутствуют

Режиссер: Роман Прыгунов, Дмитрий Тюрин



В ролях: Милош Бикович, Ирина Антоненко, Светлана Устинова, Александр Нестеров, Алёна Ивченко, Алина Алексеева (II), Сергей Тэсслер, Елизавета Лотова, Дарья Калмыкова, Артём Волобуев, Максим Иванов (II), Мария Козакова, Маруся Климова, Елена Муравьёва, Павел Баршак, Илья Ермолов, Мария Шалаева, Илья Резник, Митя Лабуш

Описание: Конец 1960-ых, разгар брежневской эпохи. Муслим Магомаев во время записи концертной программы знакомится с очаровательной оперной певицей, Тамарой Синявской. Между королём советской эстрады и восходящей звездой Большого театра с первого взгляда пробегает искра, которая становится началом большой любви. Однако Тамара замужем, да и Муслим не свободен... Но у настоящей любви нет преград, и судьба вновь сводит влюбленных. На этот раз в Париже.

Качество: HDTVRip 720p
Формат: MKV

Видео: MPEG-4 AVC, ~ 3500 Кбит/с, 1280x640, 25 fps
Аудио: Русский (AC3, 2 ch, 192 Кбит/с)
скриншот  скриншот  скриншот  скриншот  

Общее
Уникальный идентификатор : 231073167184167374705187355248850900582 (0xADD712BD651FBDF9BF7F2E52EDB41666)
Полное имя : D:Magomaev.HDTVRip.(720p).GeneralFilm1.Magomaev.HDTVRip.(720p).GeneralFilm.mkv
Формат : Matroska
Версия формата : Version 2
Размер файла : 1,19 Гбайт
Продолжительность : 46 м.
Общий поток : 3694 Кбит/сек
Дата кодирования : UTC 2020-03-09 17:16:58
Программа кодирования : mkvmerge v7.8.0 ('River Man') 32bit built on Apr 3 2015 12:11:22
Библиотека кодирования : libebml v1.3.1 + libmatroska v1.4.2

Видео
Идентификатор : 1
Формат : AVC
Формат/Информация : Advanced Video Codec
Профиль формата : High@L4.1
Параметр CABAC формата : Да
Параметр ReFrames формата : 9 кадров
Идентификатор кодека : V_MPEG4/ISO/AVC
Продолжительность : 46 м.
Битрейт : 3500 Кбит/сек
Ширина : 1280 пикселей
Высота : 640 пикселей
Соотношение сторон : 2,000
Режим частоты кадров : Постоянный
Частота кадров : 25,000 кадров/сек
Цветовое пространство : YUV
Субдискретизация насыщенности : 4:2:0
Битовая глубина : 8 бит
Тип развёртки : Прогрессивная
Бит/(Пиксели*Кадры) : 0.171
Размер потока : 1,11 Гбайт (93%)
Библиотека кодирования : x264 core 146 r2538 121396c
Настройки программы : cabac=1 / ref=9 / deblock=1:-2:-1 / analyse=0x3:0x133 / me=umh / subme=9 / psy=1 / psy_rd=1.00:0.15 / mixed_ref=1 / me_range=32 / chroma_me=1 / trellis=2 / 8x8dct=1 / cqm=0 / deadzone=21,11 / fast_pskip=0 / chroma_qp_offset=-3 / threads=18 / lookahead_threads=3 / sliced_threads=0 / nr=0 / decimate=1 / interlaced=0 / bluray_compat=0 / constrained_intra=0 / bframes=9 / b_pyramid=2 / b_adapt=2 / b_bias=0 / direct=1 / weightb=1 / open_gop=0 / weightp=2 / keyint=250 / keyint_min=25 / scenecut=40 / intra_refresh=0 / rc=2pass / mbtree=0 / bitrate=3500 / ratetol=1.0 / qcomp=0.60 / qpmin=0 / qpmax=69 / qpstep=4 / cplxblur=20.0 / qblur=0.5 / ip_ratio=1.40 / pb_ratio=1.30 / aq=2:1.00
Default : Да
Forced : Нет
Основные цвета : BT.709
Характеристики трансфера : BT.709
Коэффициенты матрицы : BT.709

Аудио
Идентификатор : 2
Формат : AC-3
Формат/Информация : Audio Coding 3
Расширение режима : CM (complete main)
Параметр Endianness формата : Big
Идентификатор кодека : A_AC3
Продолжительность : 46 м.
Вид битрейта : Постоянный
Битрейт : 192 Кбит/сек
Каналы : 2 канала
Расположение каналов : Front: L R
Частота : 48,0 КГц
Битовая глубина : 16 бит
Метод сжатия : С потерями
Размер потока : 63,6 Мбайт (5%)
Default : Да
Forced : Нет

Раздача ведётся путём добавления новых серий, при каждом добавлении создаётся новый торрент. Чтобы начать докачку новой серии, пользователям необходимо сделать следующее:

- Остановить скачивание.
- Удалить старый торрент у себя из клиента (старые серии удалять не надо).
- Скачать новый торрент и запустить его у себя в клиенте вместо старого, при этом указать клиенту путь в старую папку куда и должно происходить скачивание новых серий.

Ваш клиент при этом должен произвести хеширование (проверку) старой папки (если не производит сам - помогите ему сделать это), и будет докачивать только те серии которых у вас ещё нет. Старые серии при этом не удаляются, а продолжают раздаваться!
Если вы уже удалили старые серии, то предотвратить повторную закачку старых серий можно, отжав галочку в соответствующих местах при запуске нового торрента. По возможности, желательно не удалять старые серии как можно дольше, чтобы релизер не столько продолжал раздавать старые серии, а смог сконцентрироваться на новых.
pb.wtf



Скачать Магомаев через торрент http://d.radikal.ru/d19/2003/bb/8eb95208f548.jpg Скачать фильм Магомаев через торрент бесплантно в хорошем качестве Описание: Конец 1960-ых, разгар брежневской эпохи. Муслим Магомаев во время записи концертной программы знакомится с очаровательной оперной ... 10 10 2
Торрент: Зарегистрирован [2020-03-20 06:05] · скачан: 80 раз
Статус: √ проверено
Размер: 9.84 GB
Как cкачать? Как скачать Магомаев через торрент | qTorrent

% Раздел Тема Автор DL S | L
Наши сериалы [ 14.83 GB ] Магомаев / Сезон: 1 / Серии: 1-8 из 8 [2020 Биография музыка HDTV 1080i] bober100 Скачать
1 | 0
Наши сериалы [ 4.69 GB ] Магомаев / Сезон: 1 / Серии: 1-8 из 8 [2020 Биография музыка SATRip] bober100 Скачать
1 | 0
Наши сериалы [ 13.46 GB ] Магомаев / Сезон: 1 / Серии: 1-8 из 8 [2020 Биография музыка WEB-DL 1080p] bober100 Скачать
1 | 0
Наши сериалы [ 5.84 GB ] Магомаев / Сезон: 1 / Серии: 1-8 из 8 [2020 Биография музыка HDTVRip-AVC] bober100 Скачать
1 | 0
Наши сериалы [ 4.8 GB ] Магомаев / Сезон: 1 / Серии: 1-8 из 8 [2020 Биография музыка HDTVRip] bober100 Скачать
1 | 0

28-11-2019 20:33  

Отключить всю рекламу на сайте

    Дорогой пользователь! Огромная просьба, поблагодарите релизера, оцените раздачу и оставьте свои комментарий, если Вы скачали Магомаев через торрент бесплатно! Внесите свою лепту в развитие PiratBit!
    Комментировать посты могут только пользователи прошедшие не сложную регистрацию
    Показать сообщения:    

    Магомаев через торрент
    Скачать бесплатно Магомаев
    Магомаев скачать торрент
    Магомаев смотреть онлайн
    Cкачать фильм Магомаев бесплатно
    Магомаев скачать торрент в хорошем качестве
    Магомаев смотреть онлайн бесплатно в хорошем качестве


    Вы не можете начинать темы
    Вы не можете отвечать на сообщения
    Вы не можете редактировать свои сообщения
    Вы не можете удалять свои сообщения
    Вы не можете голосовать в опросах
    Вы не можете прикреплять файлы к сообщениям
    Вы можете скачивать файлы