Всегда рабочее зеркало без VPN и Proxy просто перед .vidak.icu напиши любое слово или цифру, Пример http://qs9r.vidak.icu

MVO

2 сезон

2 сезон

1

1 сезон

iTunes

2 сезон

13

1 сезон

Deluxe

pack

Рекомендуем

Пиратка

30

ВАЖНО

RePack

MK11

RePack

jed

RePack

fifa19

RePack

RDR2

RePack

NEED FOR SPEED™ PAYBACK

Кинопоиск HD

6 сезон

 Острые козырьки 6 сезон

Все сериалы

все сериалы на PB.wtf

RePack

FAR CRY 5

Anonymous, нам критически не хватает 5601 руб. на оплату серверов и переферии за Апрель, помоги нам пожалуйста, вся надежда только на тебя. В благодарность мы отключим тебе всю рекламу на сайте!

×
  
Magnet ссылка

Цвет из иных миров / Color Out of Space (Ричард Стэнли) [2019, Ужасы, фантастика, BDRip 720p] DUB [iTunes] pb.wtf

Цвет из иных миров через торрент pb.wtf

Раздают: 1 [ 0 KB/s ]
Размер: 4.38 GB | Добавлен: 2 года 2 мес. назад | Торрент скачан:548 раз
Смотреть онлайн Цвет из иных миров | Скачать    Ребята, помогите собрать деньги на оплату серверов!!!

09-03-2020 19:17 Цвет из иных миров Скачать торрент  

Цвет из иных миров | Color Out of Space
Год выпуска: 2019
Страна: США, Малайзия, Португалия
Жанр: Ужасы, фантастика
Продолжительность: 01:50:00
Перевод: Дублированный | iTunes
Субтитры: русские (форс., полные (Dark_Alice)), английские (полные)

Режиссер: Ричард Стэнли

rating

В ролях: Николас Кейдж, Джоэли Ричардсон, Мадлен Артур, Эллиот Найт, Томми Чонг, Брендан Мейер, Джулиан Хиллиард, Джош С. Уоллер, К’Орианка Килчер, Мелисса Нирман и др.

Описание: Фермер Нэйтан Гарднер с женой и тремя детьми живёт в отдалении от цивилизации. Однажды рядом с его домом падает метеорит, на следующий же день исчезает, и теперь вокруг места падения разрастаются необычные цветы, а телевидение и мобильная связь работают с помехами. Приехавший проверить местную воду гидролог уверен, что пить её не стоит, но члены семьи Гарднер не придают этому особого значения и вскоре начинают очень странно себя вести.

Качество: BDRip 720p
Формат: MKV

Видео: MPEG-4 AVC, 1280x536, 4875 kbps, 24,000 fps
Аудио#1: русский, AC3, 5.1 ch, 48 kHz, 384 kbps | iTunes
Аудио#2: английский, AC3, 5.1 ch, 48 kHz, 448 kbps | оригинал
скриншот  скриншот  скриншот  скриншот  скриншот  

Общее
Уникальный идентификатор : 184920710879703294837794390523594022904 (0x8B1E6EF60F0E4CF287AB916418761FF8)
Полное имя : G:Torrent2CvetIzInyhMirovBDRip720p.mkv
Формат : Matroska
Версия формата : Version 4 / Version 2
Размер файла : 4,38 Гбайт
Продолжительность : 1 ч. 50 м.
Общий поток : 5697 Кбит/сек
Дата кодирования : UTC 2020-03-09 18:58:55
Программа кодирования : mkvmerge v9.5.0 ('Quiet Fire') 64bit
Библиотека кодирования : libebml v1.3.4 + libmatroska v1.4.5

Видео
Идентификатор : 1
Формат : AVC
Формат/Информация : Advanced Video Codec
Профиль формата : High@L4.1
Настройки формата : CABAC / 12 Ref Frames
Параметр CABAC формата : Да
Параметр RefFrames формата : 12 кадров
Идентификатор кодека : V_MPEG4/ISO/AVC
Продолжительность : 1 ч. 50 м.
Битрейт : 4875 Кбит/сек
Ширина : 1280 пикселей
Высота : 536 пикселей
Соотношение сторон : 2,40:1
Режим частоты кадров : Постоянный
Частота кадров : 24,000 кадра/сек
Цветовое пространство : YUV
Субдискретизация насыщенности : 4:2:0
Битовая глубина : 8 бит
Тип развёртки : Прогрессивная
Бит/(Пиксели*Кадры) : 0.296
Размер потока : 3,74 Гбайт (85%)
Заголовок : Sisendrovich(R)
Библиотека кодирования : x264 core 159 r2991 1771b55
Настройки программы : cabac=1 / ref=12 / deblock=1:-1:-1 / analyse=0x3:0x133 / me=tesa / subme=11 / psy=1 / psy_rd=1.00:0.00 / mixed_ref=1 / me_range=32 / chroma_me=1 / trellis=2 / 8x8dct=1 / cqm=0 / deadzone=21,11 / fast_pskip=0 / chroma_qp_offset=-2 / threads=17 / lookahead_threads=4 / sliced_threads=0 / nr=0 / decimate=0 / interlaced=0 / bluray_compat=0 / constrained_intra=0 / bframes=10 / b_pyramid=2 / b_adapt=2 / b_bias=0 / direct=3 / weightb=1 / open_gop=0 / weightp=2 / keyint=240 / keyint_min=23 / scenecut=40 / intra_refresh=0 / rc_lookahead=60 / rc=2pass / mbtree=0 / bitrate=4875 / ratetol=1.0 / qcomp=0.70 / qpmin=0 / qpmax=69 / qpstep=4 / cplxblur=20.0 / qblur=0.5 / vbv_maxrate=50000 / vbv_bufsize=62500 / nal_hrd=none / filler=0 / ip_ratio=1.40 / pb_ratio=1.30 / aq=3:0.90
Язык : English
Default : Да
Forced : Нет

Аудио #1
Идентификатор : 2
Формат : AC-3
Формат/Информация : Audio Coding 3
Параметр Endianness формата : Big
Идентификатор кодека : A_AC3
Продолжительность : 1 ч. 50 м.
Вид битрейта : Постоянный
Битрейт : 384 Кбит/сек
Каналы : 6 каналов
Расположение каналов : Front: L C R, Side: L R, LFE
Частота : 48,0 КГц
Частота кадров : 31,250 кадров/сек (1536 SPF)
Битовая глубина : 16 бит
Метод сжатия : С потерями
Размер потока : 302 Мбайт (7%)
Заголовок : rus
Язык : Russian
Default : Да
Forced : Нет

Аудио #2
Идентификатор : 3
Формат : AC-3
Формат/Информация : Audio Coding 3
Параметр Endianness формата : Big
Идентификатор кодека : A_AC3
Продолжительность : 1 ч. 50 м.
Вид битрейта : Постоянный
Битрейт : 448 Кбит/сек
Каналы : 6 каналов
Расположение каналов : Front: L C R, Side: L R, LFE
Частота : 48,0 КГц
Частота кадров : 31,250 кадров/сек (1536 SPF)
Битовая глубина : 16 бит
Метод сжатия : С потерями
Размер потока : 352 Мбайт (8%)
Заголовок : eng
Язык : English
Default : Нет
Forced : Нет

Текст #1
Идентификатор : 4
Формат : UTF-8
Идентификатор кодека : S_TEXT/UTF8
Идентификатор кодека/Информация : UTF-8 Plain Text
Продолжительность : 1 ч. 2 м.
Битрейт : 0 бит/сек
ElementCount : 8
Размер потока : 400 байт (0%)
Заголовок : rusForced
Язык : Russian
Default : Да
Forced : Нет

Текст #2
Идентификатор : 5
Формат : UTF-8
Идентификатор кодека : S_TEXT/UTF8
Идентификатор кодека/Информация : UTF-8 Plain Text
Продолжительность : 1 ч. 45 м.
Битрейт : 67 бит/сек
ElementCount : 1212
Размер потока : 52,1 Кбайт (0%)
Заголовок : rusFull
Язык : Russian
Default : Нет
Forced : Нет

Текст #3
Идентификатор : 6
Формат : UTF-8
Идентификатор кодека : S_TEXT/UTF8
Идентификатор кодека/Информация : UTF-8 Plain Text
Продолжительность : 1 ч. 44 м.
Битрейт : 45 бит/сек
ElementCount : 1234
Размер потока : 35,2 Кбайт (0%)
Заголовок : engFull
Язык : English
Default : Нет
Forced : Нет

Меню
00:00:00.000 : en:Chapter 01
00:15:37.583 : en:Chapter 02
00:30:00.625 : en:Chapter 03
00:43:27.833 : en:Chapter 04
01:00:20.000 : en:Chapter 05
01:10:45.791 : en:Chapter 06
01:28:25.541 : en:Chapter 07
01:46:22.416 : en:Chapter 08

pb.wtf



Скачать Цвет из иных миров через торрент http://lostpix.com/thumbs/2020-03/09/4k6ihjq3mpekndjqvmo057ipo.png Скачать, смотреть онлайн Цвет из иных миров бесплантно в хорошем качестве Описание: Фермер Нэйтан Гарднер с женой и тремя детьми живёт в отдалении от цивилизации. Однажды рядом с его домом падает метеорит, на ... 10 10 15
Торрент: Зарегистрирован [2020-03-09 19:17] · скачан: 548 раз
Статус: √ проверено
Размер: 4.38 GB
Как cкачать? Как скачать Цвет из иных миров через торрент | UTorrent

% Раздел Тема Автор DL S | L
Ultra HD (UHD: 2K, 4K, 8K) — видео сверхвысокой чёткости [ 49.31 GB ] Цвет из иных миров / Color Out of Space [2019 UHD BDRemux 2160p ] bober100 Скачать
1 | 0
Фильмы 2019-2020 [DVDrip, WEB-DLRip, HDrip] (DUB, MVO) [ 1.41 GB ] Цвет из иных миров / Color Out of Space [2019 BDRip] - Twi7ter Скачать
11 | 0
Фильмы [HD 720p, 1080p] (Хороший звук DUB, MVO) [ 13.87 GB ] Цвет из иных миров / Color Out of Space [2019 BDRip 1080p] [GER Transfer] +AVO [М. Яроцкий ] bober100 Скачать
1 | 0
Фильмы 2019-2020 [DVDrip, WEB-DLRip, HDrip] (DUB, MVO) [ 1.41 GB ] Цвет из иных миров / Color Out of Space [2019 BDRip] bober100 Скачать
1 | 0
Фильмы с авторской озвучкой [ 1.46 GB ] Цвет из иных миров / Color Out of Space [2019 BDRip] AVO [Михаил Яроцкий] Twi7ter Скачать
1 | 0
Фильмы (Blu-ray, BD-Remux, HDDVD) [ 32.65 GB ] Цвет из иных миров / Color Out of Space [2019 BD Remux 1080p] [GER Transfer] +AVO [М. Яроцкий ] bober100 Скачать
1 | 0
Фильмы 2019-2020 [DVDrip, WEB-DLRip, HDrip] (DUB, MVO) [ 746 MB ] Цвет из иных миров / Color Out of Space [2019 HDRip] bober100 Скачать
1 | 0

28-11-2019 20:33  

Отключить всю рекламу на сайте

    Дорогой пользователь! Огромная просьба, поблагодарите релизера, оцените раздачу и оставьте свои комментарий, если Вы скачали Цвет из иных миров через торрент бесплатно!
    Комментировать посты могут только пользователи прошедшие не сложную регистрацию
    Показать сообщения:    

    Цвет из иных миров через торрент
    Скачать бесплатно Цвет из иных миров
    Цвет из иных миров скачать торрент
    Цвет из иных миров смотреть онлайн
    Cкачать фильм Цвет из иных миров бесплатно
    Цвет из иных миров скачать торрент в хорошем качестве
    Цвет из иных миров смотреть онлайн бесплатно в хорошем качестве


    Вы не можете начинать темы
    Вы не можете отвечать на сообщения
    Вы не можете редактировать свои сообщения
    Вы не можете удалять свои сообщения
    Вы не можете голосовать в опросах
    Вы не можете прикреплять файлы к сообщениям
    Вы можете скачивать файлы