Anonymous, доброй ночи, присоединяйтесь к нам в Telegram!, здесь всегда актуальный адрес сайта, оперативная поддержка и многое другое!

>

5.6

iTunes

7.4

MVO

5.7

MVO

1

7.7

1 сезон

6.8

iTunes

7.3

1 сезон

13

6.7

1 сезон

8.3

RePack

30

ULTIMATE

pack

9.9

Лицензия

ВАЖНО

ИГРА 18+

pack

7.3

RePack

MK11

7.7

RePack

jed

7.8

RePack

fifa19

8.5

RePack

RDR2

RePack

NEED FOR SPEED™ PAYBACK

4 сезон

9 сезон

Бесстыжие 9 сезон

Все сериалы

все сериалы на PB.wtf

RePack

FAR CRY 5

Anonymous, доброй ночи, мы катастрофически не успеваем собрать деньги на оплату серверов, помогите нам пожалуйста 5,10,15р., для нас важна любая помощь . В качестве благодарности мы отключим Вам всю рекламу на сайте (укажите свой ник в строку Ваше имя)!

×
  
Magnet ссылка

Патриот / Сезон: 1 / Серии: 1-17 из 17 (Николай Бурлак) [2020, Комедия, WEBRip 720p] pb.wtf

Патриот через торрент pb.wtf

Раздают: 1 [ 39 KB/s ]
Размер: 8.64 GB | Добавлен: 1 год 6 мес. назад | Торрент скачан:217 раз
Смотреть онлайн Патриот | Скачать    Ребята, помогите собрать деньги на оплату серверов!!!

10-03-2020 17:09 Патриот Скачать торрент  

Патриот
Год выпуска: 2020
Страна: Россия
Жанр: Комедия
Продолжительность: ~ 00:25:00 серия
Перевод: Не требуется
Субтитры: отсутствуют

Режиссер: Николай Бурлак



В ролях: Антон Жижин, Алёна Савастова, Анастасия Талызина, Владимир Сычёв, Анастасия Самбурская, Алексей Базанов, Валентина Лукащук, Антон Никушин, Юлия Полынская

Описание: Саня Кучин возвращается из армии в родной городок с большой мечтой сделать свой дом лучшим местом на земле. Саня — честный, деятельный парень с горячим сердцем, уверен, что у него получится исправить всех хулиганов и алкоголиков, а еще — добиться сердца любимой со школьных времен девушки.

Качество: WEBRip 720p
Формат: MKV

Видео: MPEG-4 AVC, 1280x612, 25.000 fps, 2940 Kbps, 0.150 bits/pixel
Аудио: 48 kHz, AC3, 2 ch, 192 kbps
скриншот  скриншот  скриншот  скриншот  скриншот  

General

Complete name : Downloads\Patriot.(2020).WEB-DL.720p.ExKinoRay\Patriot.e01.(2020).WEB-DL.720p.ExKinoRay.mkv
Format : Matroska
Format version : Version 2
File size : 523 MiB
Duration : 22mn 54s
Overall bit rate : 3 195 Kbps
Encoded date : UTC 2020-03-10 13:10:50
Writing application : mkvmerge v5.8.0 ('No Sleep / Pillow') built on Sep 2 2012 15:37:04
Writing library : libebml v1.2.3 + libmatroska v1.3.0
Video #1
ID : 1
Format : AVC
Format/Info : Advanced Video Codec
Format profile : High@L4.1
Format settings, CABAC : Yes
Format settings, ReFrames : 9 frames
Codec ID : V_MPEG4/ISO/AVC
Duration : 22mn 54s
Bit rate : 2 940 Kbps
Width : 1 280 pixels
Height : 612 pixels
Display aspect ratio : 2.092
Frame rate mode : Constant
Frame rate : 25.000 fps
Color space : YUV
Chroma subsampling : 4:2:0
Bit depth : 8 bits
Scan type : Progressive
Bits/(Pixel*Frame) : 0.150
Stream size : 481 MiB (92%)
Language : Russian
Default : Yes
Forced : No
Color primaries : BT.709
Transfer characteristics : BT.709
Matrix coefficients : BT.709
Color range : Limited
Audio #2
ID : 2
Format : AC-3
Format/Info : Audio Coding 3
Mode extension : CM (complete main)
Format settings, Endianness : Big
Codec ID : A_AC3
Duration : 22mn 54s
Bit rate mode : Constant
Bit rate : 192 Kbps
Channel(s) : 2 channels
Channel positions : Front: L R
Sampling rate : 48.0 KHz
Bit depth : 16 bits
Compression mode : Lossy
Stream size : 31.4 MiB (6%)
Language : Russian
Default : Yes
Forced : No

(1) остановить скачивание,
(2) удалить старый торрент у себя из клиента (старые серии удалять не надо),
(3) скачать новый торрент и запустить его у себя в клиенте вместо старого, при этом указать клиенту путь в старую папку куда и должно происходить скачивание новых серий.
Ваш клиент при этом должен произвести хеширование (проверку) старой папки (если не производит сам - помогите ему сделать это), и будет докачивать только те серии которых у вас ещё нет. Старые серии при этом не удаляются, а продолжают раздаваться!
Eсли вы уже удалили старые серии, то предотвратить повторную закачку старых серий можно, отжав галочку в соответсвующих местах при запуске нового торрента. По возможности, желательно не удалять старые серии как можно дольше чтобы релизёр не столько продолжал раздавать старые серии, а смог сконцентрироваться на новых.
pb.wtf



Скачать Патриот через торрент https://img10.lostpic.net/2020/03/10/0372767a02ee9063fcb458ec176c7212.jpg Скачать, смотреть онлайн Патриот бесплантно в хорошем качестве Описание: Саня Кучин возвращается из армии в родной городок с большой мечтой сделать свой дом лучшим местом на земле. Саня — честный, ... 9.7 10 20
Торрент: Зарегистрирован [2020-04-02 19:02] · скачан: 217 раз
Статус: √ проверено
Размер: 8.64 GB
Как cкачать? Как скачать Патриот через торрент | UTorrent

% Раздел Тема Автор DL S | L
TNT serials [ 4.98 GB ] Патриот / Сезон: 1 / Серии: 1-17 из 17 [2020 WEBRip] bober100 Скачать
2 | 0
TNT serials [ 5.99 GB ] Патриот / Сезон: 1 / Серии: 1-17 из 17 [2020 WEBRip-AVC] bober100 Скачать
1 | 0
TNT serials [ 14.89 GB ] Патриот / Сезон: 1 / Серии: 1-17 из 17 [2020 HDTV 1080i] bober100 Скачать
4 | 0
TNT serials [ 12.54 GB ] Патриот / Сезон: 1 / Серии: 1-17 из 17 [2020 WEBRip 1080p] bober100 Скачать
2 | 0
Зарубежные сериалы [ 15.01 GB ] Патриот / Patriot / Сезон: 1 / Серии: 1-10 из 10 [2017 WEBRip 720p] [MVO] killermax2013 Скачать
1 | 0
Зарубежные сериалы [ 10.39 GB ] Патриот / Patriot / Сезон 1 / Серии: 1-10 из 10 [2017 WEBRip-AVC] MVO [BaibaKo] GEKADOL Скачать
1 | 0

28-11-2019 20:33  

Отключить всю рекламу на сайте

    Дорогой пользователь! Огромная просьба, поблагодарите релизера, оцените раздачу и оставьте свои комментарий, если Вы скачали Патриот через торрент бесплатно!
    Комментировать посты могут только пользователи прошедшие не сложную регистрацию
    Показать сообщения:    

    Патриот через торрент
    Скачать бесплатно Патриот
    Патриот скачать торрент
    Патриот смотреть онлайн
    Cкачать фильм Патриот бесплатно
    Патриот скачать торрент в хорошем качестве
    Патриот смотреть онлайн бесплатно в хорошем качестве


    Вы не можете начинать темы
    Вы не можете отвечать на сообщения
    Вы не можете редактировать свои сообщения
    Вы не можете удалять свои сообщения
    Вы не можете голосовать в опросах
    Вы не можете прикреплять файлы к сообщениям
    Вы можете скачивать файлы