Anonymous, доброй ночи, присоединяйтесь к нам в Telegram!, здесь всегда актуальный адрес сайта, оперативная поддержка и многое другое!

>

5.6

iTunes

7.4

MVO

5.7

MVO

1

7.7

1 сезон

6.8

iTunes

7.3

1 сезон

13

6.7

1 сезон

8.3

RePack

30

ULTIMATE

pack

9.9

Лицензия

ВАЖНО

ИГРА 18+

pack

7.3

RePack

MK11

7.7

RePack

jed

7.8

RePack

fifa19

8.5

RePack

RDR2

RePack

NEED FOR SPEED™ PAYBACK

4 сезон

9 сезон

Бесстыжие 9 сезон

Все сериалы

все сериалы на PB.wtf

RePack

FAR CRY 5

Anonymous, доброй ночи, мы катастрофически не успеваем собрать деньги на оплату серверов, помогите нам пожалуйста 5,10,15р., для нас важна любая помощь . В качестве благодарности мы отключим Вам всю рекламу на сайте (укажите свой ник в строку Ваше имя)!

×
  
Magnet ссылка

Патриот / Сезон: 1 / Серии: 1-17 из 17 (Николай Бурлак) [2020, Комедия, WEBRip 1080p] pb.wtf

Патриот через торрент pb.wtf

Раздают: 1 [ 0 KB/s ]
Размер: 12.54 GB | Добавлен: 1 год 6 мес. назад | Торрент скачан:141 раз
Смотреть онлайн Патриот | Скачать    Ребята, помогите собрать деньги на оплату серверов!!!

10-03-2020 17:14 Патриот Скачать торрент  

Патриот
Год выпуска: 2020
Страна: Россия
Жанр: Комедия
Продолжительность: ~ 00:25:00 серия
Перевод: Не требуется
Субтитры: отсутствуют

Режиссер: Николай Бурлак



В ролях: Антон Жижин, Алёна Савастова, Анастасия Талызина, Владимир Сычёв, Анастасия Самбурская, Алексей Базанов, Валентина Лукащук, Антон Никушин, Юлия Полынская

Описание: Саня Кучин возвращается из армии в родной городок с большой мечтой сделать свой дом лучшим местом на земле. Саня — честный, деятельный парень с горячим сердцем, уверен, что у него получится исправить всех хулиганов и алкоголиков, а еще — добиться сердца любимой со школьных времен девушки.

Качество: WEBRip 1080p
Формат: MKV

Видео: MPEG-4 AVC, ~ 4500 Кбит/с, 1920x912
Аудио: AC3, 2 ch, 192 Кбит/с
скриншот  скриншот  скриншот  скриншот  

Общее
Уникальный идентификатор : 234524214502307523590799566956207428496 (0xB06FB882606864D19A838E832B3A5390)
Полное имя : D:\Patriot.S01.2020.WEB-DL.(1080p).Getty\Patriot.s01e01.2020.WEB-DL.(1080p).Getty.mkv
Формат : Matroska
Версия формата : Version 4 / Version 2
Размер файла : 752 Мбайт
Продолжительность : 22 м. 54 с.
Режим общего битрейта : Переменный
Общий поток : 4586 Кбит/сек
Название фильма : Patriot.s01e01.2020.WEB-DL.(1080p).Getty
Дата кодирования : UTC 2020-03-10 17:04:13
Программа кодирования : mkvmerge v7.8.0 ('River Man') 32bit built on Mar 27 2015 16:18:02
Библиотека кодирования : libebml v1.3.1 + libmatroska v1.4.2

Видео
Идентификатор : 1
Формат : AVC
Формат/Информация : Advanced Video Codec
Профиль формата : High@L4
Параметр CABAC формата : Да
Параметр RefFrames формата : 1 кадр
Идентификатор кодека : V_MPEG4/ISO/AVC
Продолжительность : 22 м. 54 с.
Вид битрейта : Переменный
Битрейт : 4444 Кбит/сек
Максимальный битрейт : 4500 Кбит/сек
Ширина : 1920 пикселей
Высота : 912 пикселей
Соотношение сторон : 2,087
Режим частоты кадров : Постоянный
Частота кадров : 25,000 кадров/сек
Цветовое пространство : YUV
Субдискретизация насыщенности : 4:2:0
Битовая глубина : 8 бит
Тип развёртки : Прогрессивная
Бит/(Пиксели*Кадры) : 0.098
Размер потока : 705 Мбайт (94%)
Default : Да
Forced : Нет

Аудио
Идентификатор : 2
Формат : AC-3
Формат/Информация : Audio Coding 3
Расширение режима : CM (complete main)
Параметр Endianness формата : Big
Идентификатор кодека : A_AC3
Продолжительность : 22 м. 54 с.
Вид битрейта : Постоянный
Битрейт : 192 Кбит/сек
Каналы : 2 канала
Расположение каналов : Front: L R
Частота : 48,0 КГц
Частота кадров : 31,250 кадров/сек (1536 spf)
Метод сжатия : С потерями
Размер потока : 31,5 Мбайт (4%)
Default : Да
Forced : Нет

(1) остановить скачивание,
(2) удалить старый торрент у себя из клиента (старые серии удалять не надо),
(3) скачать новый торрент и запустить его у себя в клиенте вместо старого, при этом указать клиенту путь в старую папку куда и должно происходить скачивание новых серий.
Ваш клиент при этом должен произвести хеширование (проверку) старой папки (если не производит сам - помогите ему сделать это), и будет докачивать только те серии которых у вас ещё нет. Старые серии при этом не удаляются, а продолжают раздаваться!
Eсли вы уже удалили старые серии, то предотвратить повторную закачку старых серий можно, отжав галочку в соответсвующих местах при запуске нового торрента. По возможности, желательно не удалять старые серии как можно дольше чтобы релизёр не столько продолжал раздавать старые серии, а смог сконцентрироваться на новых.
pb.wtf



Скачать Патриот через торрент https://img10.lostpic.net/2020/03/10/0372767a02ee9063fcb458ec176c7212.jpg Скачать, смотреть онлайн Патриот бесплантно в хорошем качестве Описание: Саня Кучин возвращается из армии в родной городок с большой мечтой сделать свой дом лучшим местом на земле. Саня — честный, ... 10 10 20
Торрент: Зарегистрирован [2020-04-02 17:46] · скачан: 141 раз
Статус: √ проверено
Размер: 12.54 GB
Как cкачать? Как скачать Патриот через торрент | UTorrent

% Раздел Тема Автор DL S | L
TNT serials [ 4.98 GB ] Патриот / Сезон: 1 / Серии: 1-17 из 17 [2020 WEBRip] bober100 Скачать
1 | 0
TNT serials [ 5.99 GB ] Патриот / Сезон: 1 / Серии: 1-17 из 17 [2020 WEBRip-AVC] bober100 Скачать
1 | 0
TNT serials [ 14.89 GB ] Патриот / Сезон: 1 / Серии: 1-17 из 17 [2020 HDTV 1080i] bober100 Скачать
3 | 0
TNT serials [ 8.64 GB ] Патриот / Сезон: 1 / Серии: 1-17 из 17 [2020 WEBRip 720p] bober100 Скачать
2 | 0
Зарубежные сериалы [ 15.01 GB ] Патриот / Patriot / Сезон: 1 / Серии: 1-10 из 10 [2017 WEBRip 720p] [MVO] killermax2013 Скачать
1 | 0
Зарубежные сериалы [ 10.39 GB ] Патриот / Patriot / Сезон 1 / Серии: 1-10 из 10 [2017 WEBRip-AVC] MVO [BaibaKo] GEKADOL Скачать
1 | 0

28-11-2019 20:33  

Отключить всю рекламу на сайте

    Дорогой пользователь! Огромная просьба, поблагодарите релизера, оцените раздачу и оставьте свои комментарий, если Вы скачали Патриот через торрент бесплатно!
    Комментировать посты могут только пользователи прошедшие не сложную регистрацию
    Показать сообщения:    

    Патриот через торрент
    Скачать бесплатно Патриот
    Патриот скачать торрент
    Патриот смотреть онлайн
    Cкачать фильм Патриот бесплатно
    Патриот скачать торрент в хорошем качестве
    Патриот смотреть онлайн бесплатно в хорошем качестве


    Вы не можете начинать темы
    Вы не можете отвечать на сообщения
    Вы не можете редактировать свои сообщения
    Вы не можете удалять свои сообщения
    Вы не можете голосовать в опросах
    Вы не можете прикреплять файлы к сообщениям
    Вы можете скачивать файлы