Всегда рабочее зеркало просто перед .vidak.icu напиши любое слово или цифру, Пример http://vrc.vidak.icu

>

7.4

iTunes

7.4

2 сезон

9.4

1 сезон

1

7.4

2 сезон

7.2

iTunes

6.0

MVO

13

6.1

iTunes

8.3

Пиратка

30

ULTIMATE

pack

9.9

Лицензия

ВАЖНО

ИГРА 18+

pack

7.3

RePack

MK11

7.7

RePack

jed

7.8

RePack

fifa19

8.5

RePack

RDR2

RePack

NEED FOR SPEED™ PAYBACK

1 сезон

9 сезон

Бесстыжие 9 сезон

Все сериалы

все сериалы на PB.wtf

RePack

FAR CRY 5

Anonymous, добрый день, мы катастрофически не успеваем собрать деньги на оплату серверов, помогите нам пожалуйста 5,10,15р., для нас важна любая помощь . В качестве благодарности мы отключим Вам всю рекламу на сайте (укажите свой ник в строку Ваше имя)!

×
  
Magnet ссылка

Зелёная книга / Green Book (Питер Фаррелли) [2018, комедия, драма, биография, BDRip-AVC] [AVO] (Пучков) pb.wtf

Зелёная книга через торрент pb.wtf

Размер: 2.66 GB | Добавлен: 1 год 10 мес. назад | Торрент скачан:101 раз
Смотреть онлайн Зелёная книга | Скачать    Ребята, помогите собрать деньги на оплату серверов!!!

10-03-2020 17:19 Зелёная книга Скачать торрент  


Зелёная книга / Green Book

«Inspired by a True Friendship»

Страна: США
Жанр: комедия, драма, биография
Год выпуска: 2018
Продолжительность: 02:10:05
Перевод: Авторский (одноголосый закадровый) Пучков "Гоблин"
Субтитры: русские (форсированные, полные), английские
Режиссер: Питер Фаррелли / Peter Farrelly
В ролях: Вигго Мортенсен, Махершала Али, Линда Карделлини, Себастьян Манискалко, Димитар Маринов, Майк Хаттон, П.Дж. Бирн, Джозеф Кортезе, Мэгги Никсон, Фон Льюис
Описание: Утонченный светский лев, богатый и талантливый музыкант нанимает в качестве водителя и телохранителя человека, который менее всего подходит для этой работы. Тони «Болтун» - вышибала, не умеющий держать рот на замке и пользоваться столовыми приборами, зато он хорошо работает кулаками. Это турне навсегда изменит жизнь обоих.


Качество видео: BDRip-AVC / Green.Book.2018.BDREMUX.1080p.seleZen
Формат видео: MKV
Видео: MPEG-4 AVC, 1060x530 (2.000), 23.976 fps, ~1970 kbps avg, 0.146 bit/pixel
Аудио 1: 48 kHz, AC3 Dolby Digital, 3/2 (L,C,R,l,r) + LFE ch, ~448 kbps avg Пучков "Гоблин"
Аудио 2: 48 kHz, AC3 Dolby Digital, 3/2 (L,C,R,l,r) + LFE ch, ~448 kbps avg Original

Код:

Complete name               : D:\Раздача\Зеленая книга (2018) BDRip-AVC ivanes .mkv
Format                      : Matroska
Format version              : Version 2
File size                   : 2.66 GiB
Duration                    : 2 h 10 min
Overall bit rate            : 2 924 kb/s
Movie name                  : Зеленая книга (2018) BDRip-AVC_ivanes
Encoded date                : UTC 2020-03-08 19:21:30
Writing application         : mkvmerge v4.4.0 ('Die Wiederkehr') сборка от Jan  3 2011 21:40:45
Writing library             : libebml v1.0.0 + libmatroska v1.0.0
Cover                       : Yes
Attachments                 : cover.jpg

Video
ID                          : 1
Format                      : AVC
Format/Info                 : Advanced Video Codec
Format profile              : High@L4.1
Format settings             : CABAC / 14 Ref Frames
Format settings, CABAC      : Yes
Format settings, Reference  : 14 frames
Codec ID                    : V_MPEG4/ISO/AVC
Duration                    : 2 h 10 min
Bit rate                    : 1 970 kb/s
Width                       : 1 060 pixels
Height                      : 530 pixels
Display aspect ratio        : 2.000
Frame rate mode             : Constant
Frame rate                  : 23.976 (24000/1001) FPS
Color space                 : YUV
Chroma subsampling          : 4:2:0
Bit depth                   : 8 bits
Scan type                   : Progressive
Bits/(Pixel*Frame)          : 0.146
Stream size                 : 1.79 GiB (67%)
Title                       : Rip by ivanes
Writing library             : x264 core 159 r2991 1771b55
Encoding settings           : cabac=1 / ref=14 / deblock=1:-3:-2 / analyse=0x3:0x113 / me=umh / subme=10 / psy=1 / psy_rd=1.00:0.00 / mixed_ref=1 / me_range=32 / chroma_me=1 / trellis=2 / 8x8dct=1 / cqm=0 / deadzone=21,11 / fast_pskip=0 / chroma_qp_offset=-2 / threads=12 / lookahead_threads=3 / sliced_threads=0 / nr=0 / decimate=1 / interlaced=0 / bluray_compat=0 / constrained_intra=0 / bframes=14 / b_pyramid=2 / b_adapt=2 / b_bias=0 / direct=1 / weightb=1 / open_gop=0 / weightp=2 / keyint=240 / keyint_min=23 / scenecut=40 / intra_refresh=0 / rc_lookahead=60 / rc=crf / mbtree=1 / crf=17.1 / qcomp=0.60 / qpmin=0 / qpmax=69 / qpstep=4 / vbv_maxrate=50000 / vbv_bufsize=62500 / crf_max=0.0 / nal_hrd=none / filler=0 / ip_ratio=1.40 / aq=1:1.00
Default                     : Yes
Forced                      : No
Statistics Tags Issue       : mkvmerge v29.0.0 ('Like It Or Not') 64-bit 2020-03-08 17:30:29 / mkvmerge v4.4.0 ('Die Wiederkehr') сборка от Jan  3 2011 21:40:45 2020-03-08 19:21:30
FromStats_BitRate           : 2026031
FromStats_Duration          : 02:10:04.755000000
FromStats_FrameCount        : 187127
FromStats_StreamSize        : 1976584470

Audio #1
ID                          : 2
Format                      : AC-3
Format/Info                 : Audio Coding 3
Commercial name             : Dolby Digital
Codec ID                    : A_AC3
Duration                    : 2 h 10 min
Bit rate mode               : Constant
Bit rate                    : 448 kb/s
Channel(s)                  : 6 channels
Channel layout              : L R C LFE Ls Rs
Sampling rate               : 48.0 kHz
Frame rate                  : 31.250 FPS (1536 SPF)
Compression mode            : Lossy
Stream size                 : 417 MiB (15%)
Title                       : Пучков "Гоблин"
Language                    : Russian
Service kind                : Complete Main
Default                     : Yes
Forced                      : No

Audio #2
ID                          : 3
Format                      : AC-3
Format/Info                 : Audio Coding 3
Commercial name             : Dolby Digital
Codec ID                    : A_AC3
Duration                    : 2 h 10 min
Bit rate mode               : Constant
Bit rate                    : 448 kb/s
Channel(s)                  : 6 channels
Channel layout              : L R C LFE Ls Rs
Sampling rate               : 48.0 kHz
Frame rate                  : 31.250 FPS (1536 SPF)
Compression mode            : Lossy
Stream size                 : 417 MiB (15%)
Title                       : Original
Language                    : English
Service kind                : Complete Main
Default                     : No
Forced                      : No

Text #1
ID                          : 4
Format                      : UTF-8
Codec ID                    : S_TEXT/UTF8
Codec ID/Info               : UTF-8 Plain Text
Title                       : Forced
Language                    : Russian
Default                     : Yes
Forced                      : No

Text #2
ID                          : 5
Format                      : UTF-8
Codec ID                    : S_TEXT/UTF8
Codec ID/Info               : UTF-8 Plain Text
Title                       : Full
Language                    : Russian
Default                     : No
Forced                      : No

Text #3
ID                          : 6
Format                      : UTF-8
Codec ID                    : S_TEXT/UTF8
Codec ID/Info               : UTF-8 Plain Text
Title                       : Full
Language                    : English
Default                     : No
Forced                      : No

скриншот  скриншот  скриншот  
pb.wtf



Скачать Зелёная книга через торрент https://i109.fastpic.ru/big/2019/0221/76/61129afbe3c56d9daaa84189d6204676.jpg Скачать, смотреть онлайн Зелёная книга бесплантно в хорошем качестве Описание: Утонченный светский лев, богатый и талантливый музыкант нанимает в качестве водителя и телохранителя человека, который менее ... 10 10 1
Торрент: Зарегистрирован [2020-03-10 17:19] · скачан: 101 раз
Статус: √ проверено
Размер: 2.66 GB
Как cкачать? Как скачать Зелёная книга через торрент | UTorrent

% Раздел Тема Автор DL S | L
Фильмы (HD 720p, 1080p) (48-60 fps) [ 4.45 GB ] Зелёная книга / Green Book [2018 биография BDRip - HEVC 1080p 10 bit 60 FPS DUB] dd2d3 Скачать
3 | 0
Фильмы (WEB-DL 720p, 1080p) [ 5.65 GB ] Зеленая книга / Green Book [2018 биография WEB-DL 720p] [AMAZON] MVO [HDRezka Studio] + bober100 Скачать
1 | 0
Фильмы с авторской озвучкой [ 2.01 GB ] Зелёная книга / Green Book [2018 биография WEB-DLRip 1080p] [AVO] killermax2013 Скачать
1 | 0
Фильмы [HD 720p, 1080p] (Хороший звук DUB, MVO) [ 18.27 GB ] Зеленая книга / Green Book [2018 биография BDRip 1080p] MVO [HDRezka Studio] +DUB [] +AVO [Д.Есарев] bober100 Скачать
1 | 0
Ultra HD (UHD: 2K, 4K, 8K) — видео сверхвысокой чёткости [ 42.32 GB ] Зеленая книга / Green Book [2018 биография UHD BDRip 2160p] [SDR] DUB [Blu-ray CEE] + MVO [HDRezka Studio] sheker187 Скачать
1 | 0
Ultra HD (UHD: 2K, 4K, 8K) — видео сверхвысокой чёткости [ 54.23 GB ] Зеленая книга / Green Book [2018 биография UHD BDRemux 2160p] DUB [] + MVO [HDRezka Studio] sheker187 Скачать
1 | 0
Ultra HD (UHD: 2K, 4K, 8K) — видео сверхвысокой чёткости [ 63.36 GB ] Зеленая книга / Green Book [2018 биография UHD Blu-ray 2160p] DUB [] sheker187 Скачать
1 | 0

28-11-2019 20:33  

Отключить всю рекламу на сайте

    Дорогой пользователь! Огромная просьба, поблагодарите релизера, оцените раздачу и оставьте свои комментарий, если Вы скачали Зелёная книга через торрент бесплатно!
    Комментировать посты могут только пользователи прошедшие не сложную регистрацию
    Показать сообщения:    

    Зелёная книга через торрент
    Скачать бесплатно Зелёная книга
    Зелёная книга скачать торрент
    Зелёная книга смотреть онлайн
    Cкачать фильм Зелёная книга бесплатно
    Зелёная книга скачать торрент в хорошем качестве
    Зелёная книга смотреть онлайн бесплатно в хорошем качестве


    Вы не можете начинать темы
    Вы не можете отвечать на сообщения
    Вы не можете редактировать свои сообщения
    Вы не можете удалять свои сообщения
    Вы не можете голосовать в опросах
    Вы не можете прикреплять файлы к сообщениям
    Вы можете скачивать файлы