Ссылка на приватное зеркало всего за 1$. Внимание количество ограничено!!!

iTunes

iTunes

iTunes

1

iTunes

iTunes

iTunes

WEBRip

iTunes

30
pack

$ от Little Big

ВАЖНО

!!Акция!!

Alien_RageХит недели

RePack

Resident Evil 21

ИГРА 18+

pack

RePack

jed

!!Акция!!

Alien_Rage

RePack

fifa19

RePack

Assassins Creed: Odyssey

RePack

NEED FOR SPEED™ PAYBACK

4 сезон

9 сезон

Бесстыжие 9 сезон

Все сериалы

все сериалы на PB.wtf

RePack

FAR CRY 5
  

Самус Аран (Метроид) сборка / Samus Aran (Metroid) assembly [2017 г., 3D, All Sex, Futanari, Monsters, Bestiality, Pregnant, Birth, Creampie, WEB-DL] pb.wtf

Самус Аран через торрент pb.wtf

Раздают: 2 [ 0 KB/s ]
Размер: 2.03 GB | Добавлен: 5 мес. назад | Торрент скачан:173 раза
Скачать  

10-03-2020 18:27 Самус Аран Скачать торрент  

Самус Аран (Метроид) сборка / Samus Aran (Metroid) assembly

Год производства: 2017 г.

Страна : США

Жанр: 3D, All Sex, Futanari, Monsters, Bestiality, Pregnant, Birth, Creampie

Продолжительность: 01:07:06

В ролях : Самус Аран

Описание: Самус Аран главная героиня серии игр Metroid


Качество: WEB-DL
Формат видео: AVI
Видео: 720x576, XVID, 2707 Кбит/сек
Аудио: Английский, PCM, 2 ch, 1536 Кбит/сек
Видео
Идентификатор : 0
Формат : MPEG-4 Visual
Профиль формата : Advanced Simple@L5
Настройки формата : BVOP2
Параметр BVOP формата : 2
Параметр QPel формата : Нет
Параметр GMC формата : Без точки перехода
Параметр матрицы формата : Default (MPEG)
Режим смешивания : Сжатый битовый поток
Идентификатор кодека : XVID
Идентификатор кодека/Подсказка : XviD
Продолжительность : 1 ч. 7 м.
Битрейт : 2707 Кбит/сек
Ширина : 720 пикселей
Высота : 576 пикселей
Соотношение сторон : 5:4
Частота кадров : 29,970 (30000/1001) кадров/сек
Цветовое пространство : YUV
Субдискретизация насыщенности : 4:2:0
Битовая глубина : 8 бит
Тип развёртки : Прогрессивная
Метод сжатия : С потерями
Бит/(Пиксели*Кадры) : 0.218
Размер потока : 1,27 Гбайт (62%)
Библиотека кодирования : XviD 73

Аудио
Идентификатор : 1
Формат : PCM
Настройки формата : Little / Signed
Идентификатор кодека : 1
Продолжительность : 1 ч. 7 м.
Вид битрейта : Постоянный
Битрейт : 1536 Кбит/сек
Каналы : 2 канала
Частота : 48,0 КГц
Битовая глубина : 16 бит
Размер потока : 737 Мбайт (35%)
Выравнивание : Соединение по промежуткам
Продолжительность промежутка : 250 мс. (7,49 видеокадров)
Время предзагрузки промежутка : 250 мс.
pb.wtf



pack Скачать Самус Аран через торрент https://c.radikal.ru/c38/2003/5f/a1b62a1891f3.png Скачать фильм Самус Аран через торрент бесплантно в хорошем качестве Описание: Самус Аран главная героиня серии игр ... 9.9 10 11
Торрент: Зарегистрирован [2020-03-11 15:12] · скачан: 173 раз
Статус: √ проверено
Размер: 2.03 GB
Как cкачать? Как скачать Самус Аран через торрент | qTorrent



Последний раз редактировалось: DJASFUL (2020-03-11 15:12), всего редактировалось 2 раз(а)

28-11-2019 20:33  

Отключить всю рекламу на сайте

    Дорогой пользователь! Огромная просьба, поблагодарите релизера, оцените раздачу и оставьте свои комментарий, если Вы скачали Самус Аран через торрент бесплатно! Внесите свою лепту в развитие PiratBit!
    Комментировать посты могут только пользователи прошедшие не сложную регистрацию
    Показать сообщения:    

    Самус Аран через торрент
    Скачать бесплатно Самус Аран
    Самус Аран скачать торрент
    Самус Аран смотреть онлайн
    Cкачать фильм Самус Аран бесплатно
    Самус Аран скачать торрент в хорошем качестве
    Самус Аран смотреть онлайн бесплатно в хорошем качестве


    Вы не можете начинать темы
    Вы не можете отвечать на сообщения
    Вы не можете редактировать свои сообщения
    Вы не можете удалять свои сообщения
    Вы не можете голосовать в опросах
    Вы не можете прикреплять файлы к сообщениям
    Вы можете скачивать файлы