2 сезон

iTunes

1 сезон

1

iTunes

iTunes

iTunes

1 сезон

RePack

30

ИГРА 18+

pack

ВАЖНО

!!Акция!!

Alien_RageХит недели

RePack

MK11
pack

Забери бонус

RePack

jed

!!Акция!!

Alien_Rage

RePack

fifa19

RePack

Assassins Creed: Odyssey

RePack

NEED FOR SPEED™ PAYBACK

4 сезон

9 сезон

Бесстыжие 9 сезон

Все сериалы

все сериалы на PB.wtf

RePack

FAR CRY 5
  

Каждый день жизни (Тимур Золоев) [1973 г., драма, TVRip-AVC] pb.wtf

Каждый день жизни через торрент pb.wtf

Раздают: 1 [ 0 KB/s ]
Размер: 1.32 GB | Добавлен: 7 мес. назад | Торрент скачан:6 раз
Скачать  

11-03-2020 18:00 Каждый день жизни Скачать торрент  

Каждый день жизни

Год выпуска: 1973
Страна: СССР | Одесская киностудия
Жанр: детский, приключения
Продолжительность: 01:17:03
Перевод: не требуется (оригинал)

Режиссер: Тимур Золоев

В ролях: Виктор Измайлов, Николай Мерзликин, Владимир Кашпур, Юрий Кузьменков, Всеволод Гаврилов, Владимир Шакало, Вячеслав Жариков, Ирина Санпитер, Сергей Ляхницкий, Борис Иванов

Описание: Шахтерский городок со специфически сложными горно-геологическими условиями. Новому главному инженеру дирекция шахты ставит задачу закрыть опасную лаву, одна из лучших шахт перестала выполнять план. Сделав расчеты, главный инженер обнаружил возможность выхода на нормальный пласт...


Рейтинг 12+ - зрителям, достигшим 12 лет

Файл
Формат: MKV
Кодек: x264
Качество: TVRip-AVC
Видео: 700->746x374, 25.000 fps, 2209 kbps, 0.338 bit/pixel
Аудио: Русский, AC3, 2 chnls, 192 kbps | Оригинал
Скачать: Семпл
x264 [info]: frame I:595 Avg QP:12.67 size: 36332
x264 [info]: frame P:25065 Avg QP:14.55 size: 22864
x264 [info]: frame B:89938 Avg QP:16.07 size: 7888
x264 [info]: consecutive B-frames: 2.5% 0.9% 5.6% 18.7% 23.0% 46.3% 2.3% 0.5% 0.1% 0.1% 0.0% 0.0% 0.0%
Format : Matroska
Format version : Version 2
File size : 1.32 GiB
Duration : 1 h 17 min
Overall bit rate mode : Variable
Overall bit rate : 2 450 kb/s
Movie name : Каждый день жизни (1973) - Rip by -{am}-
Encoded date : UTC 2020-01-18 04:26:42
Writing application : mkvmerge v7.8.0 ('River Man') 32bit built on Apr 3 2015 12:11:22
Writing library : libebml v1.3.1 + libmatroska v1.4.2
Attachments : poster.jpg

Video
ID : 1
Format : AVC
Format/Info : Advanced Video Codec
Format profile : High@L3.1
Format settings : CABAC / 15 Ref Frames
Format settings, CABAC : Yes
Format settings, Reference : 15 frames
Codec ID : V_MPEG4/ISO/AVC
Duration : 1 h 17 min
Bit rate mode : Variable
Bit rate : 2 209 kb/s
Maximum bit rate : 17.5 Mb/s
Width : 700 pixels
Height : 374 pixels
Display aspect ratio : 1.995
Original display aspect rat : 1.996
Frame rate mode : Constant
Frame rate : 25.000 FPS
Color space : YUV
Chroma subsampling : 4:2:0
Bit depth : 8 bits
Scan type : Progressive
Bits/(Pixel*Frame) : 0.338
Stream size : 1.19 GiB (90%)
Title : Каждый.день.жизни.1973.{am}.746.Rus
Writing library : x264 core 159 r2991+49 524a90c t_mod_New [0-bit@all X86_64]
Encoding settings : cabac=1 / ref=15 / deblock=1:-2:-4 / analyse=0x3:0x113 / me=umh / subme=11 / psy=1 / fade_compensate=0.00 / psy_rd=1.00:0.15 / mixed_ref=1 / me_range=32 / chroma_me=1 / trellis=2 / 8x8dct=1 / cqm=2 / deadzone=6,6 / fast_pskip=0 / chroma_qp_offset=-5 / threads=6 / lookahead_threads=1 / sliced_threads=0 / nr=0 / decimate=0 / interlaced=0 / bluray_compat=0 / constrained_intra=0 / fgo=0 / bframes=12 / b_pyramid=2 / b_adapt=2 / b_bias=0 / direct=3 / weightb=1 / open_gop=0 / weightp=2 / keyint=250 / keyint_min=25 / scenecut=40 / intra_refresh=0 / rc_lookahead=60 / rc=crf / mbtree=0 / crf=16.6000 / qcomp=0.60 / qpmin=0:0:0 / qpmax=69:69:69 / qpstep=4 / vbv_maxrate=17500 / vbv_bufsize=17500 / crf_max=0.0 / nal_hrd=vbr / filler=0 / ip_ratio=1.40 / pb_ratio=1.30 / aq=3:0.90 / aq-sensitivity=10.00 / aq-factor=0.90:0.90:0.90 / aq2=1:0.50 / aq2-sensitivity=15.00 / aq2-factor=0.90:0.90:0.90 / aq3=2:[0.50:0.50]:[0.50:0.50]:[0.50:0.50]:[0.50:0.50] / aq3-sensitivity=10.00 / aq3-factor=[0.90:0.90]:[0.90:0.90]:[0.90:0.90] / aq3-boundary=205:56:9
Language : English
Default : Yes
Forced : No

Audio
ID : 2
Format : AC-3
Format/Info : Audio Coding 3
Commercial name : Dolby Digital
Codec ID : A_AC3
Duration : 1 h 17 min
Bit rate mode : Constant
Bit rate : 192 kb/s
Channel(s) : 2 channels
Channel layout : L R
Sampling rate : 48.0 kHz
Frame rate : 31.250 FPS (1536 SPF)
Compression mode : Lossy
Stream size : 106 MiB (8%)
Language : Russian
Service kind : Complete Main
Default : Yes
Forced : No
pb.wtf



Скачать Каждый день жизни через торрент https://img10.lostpic.net/2020/03/11/044ca20da669229b754a81fa1471879d.th.png Скачать фильм Каждый день жизни через торрент бесплантно в хорошем качестве Описание: Шахтерский городок со специфически сложными горно-геологическими условиями. Новому главному инженеру дирекция шахты ставит задачу ... 1 10 1
Info! Золотая раздача, скачанное не засчитывается.
Торрент: Зарегистрирован [2020-03-11 18:00] · скачан: 6 раз
Статус: √ проверено
Размер: 1.32 GB
Как cкачать? Как скачать Каждый день жизни через торрент | qTorrent

% Раздел Тема Автор DL S | L
T Релизы по Парсеру [Игры, Сериалы и Фильмы и другое...] [ 5 MB ] Брюс Ли — Правила жизни Брюса Ли. Слова мудрости на каждый день [2017 PDF/FB2/EPUB/RTF RUS] killermax2013 Скачать
1 | 0

28-11-2019 20:33  

Отключить всю рекламу на сайте

    Дорогой пользователь! Огромная просьба, поблагодарите релизера, оцените раздачу и оставьте свои комментарий, если Вы скачали Каждый день жизни через торрент бесплатно! Внесите свою лепту в развитие PiratBit!
    Комментировать посты могут только пользователи прошедшие не сложную регистрацию
    Показать сообщения:    

    Каждый день жизни через торрент
    Скачать бесплатно Каждый день жизни
    Каждый день жизни скачать торрент
    Каждый день жизни смотреть онлайн
    Cкачать фильм Каждый день жизни бесплатно
    Каждый день жизни скачать торрент в хорошем качестве
    Каждый день жизни смотреть онлайн бесплатно в хорошем качестве


    Вы не можете начинать темы
    Вы не можете отвечать на сообщения
    Вы не можете редактировать свои сообщения
    Вы не можете удалять свои сообщения
    Вы не можете голосовать в опросах
    Вы не можете прикреплять файлы к сообщениям
    Вы можете скачивать файлы