2 сезон

iTunes

1 сезон

1

iTunes

iTunes

iTunes

1 сезон

RePack

30

ИГРА 18+

pack

ВАЖНО

!!Акция!!

Alien_RageХит недели

RePack

MK11
pack

Забери бонус

RePack

jed

!!Акция!!

Alien_Rage

RePack

fifa19

RePack

Assassins Creed: Odyssey

RePack

NEED FOR SPEED™ PAYBACK

4 сезон

9 сезон

Бесстыжие 9 сезон

Все сериалы

все сериалы на PB.wtf

RePack

FAR CRY 5
  

Рождённая звездой / Сезон: 1 / Серии: 1-12 из 12 (Владимир Шевельков, Марат Ким) [2015, Музыкальный, мелодрама, HDTVRip] pb.wtf

Рождённая звездой через торрент pb.wtf

Размер: 6.44 GB | Добавлен: 7 мес. назад | Торрент скачан:12 раз
Скачать  

12-03-2020 07:11 Рождённая звездой Скачать торрент  

Рождённая звездой
Год выпуска: 2015
Страна: Россия
Жанр: Музыкальный, мелодрама
Продолжительность: ~ 00:44:00 серия
Субтитры: отсутствуют

Режиссер: Владимир Шевельков, Марат Ким



В ролях: Марина Александрова, Игорь Петренко, Ольга Сутулова, Николай Иванов (II), Галина Петрова, Анна Цуканова-Котт, Сергей Гузеев, Дарья Румянцева, Олег Алмазов, Тамара Акулова, Алексей Франдетти, Маргарита Адаева, Владимир Шевельков, Андреа Бартелуччи

Описание: История о любви и музыке на фоне эпохи. 50-е–60-е годы XX века подарили нам целую плеяду талантливых артистов, ставших легендами советской эстрады. Главная героиня фильма – певица Клаудиа Коваль (Марина Александрова) – вымышленный и собирательный персонаж, в судьбе которой угадывается жизненный и творческий путь многих известных певиц того времени, таких как: Майя Кристалинская, Аида Ведищева, Тамара Миансарова, Нина Бродская и других. Клаудия Коваль - студентка Ленинградского университета, родом из Польши. Она никогда не планировала связывать свою жизнь с музыкой, пока не познакомилась с обаятельным и талантливым композитором Павлом Шаховским. Шаховской, для друзей просто Пал Саныч, был очарован красотой и уникальными вокальными данными Клаудии и предложил ей стать солисткой своего ансамбля. Победа на Всемирном фестивале молодежи и студентов открыла Клаудии дорогу на большую эстраду. Впереди ее ждет большое будущее - зарубежные гастроли, поклонники и всесоюзная слава. Пал Саныч же понимает, что нашел не только певицу, но и свою любовь. Он решает сделать из своей любимой девушки звезду эстрады, не предполагая, что за успех и славу придется расплачиваться личным счастьем..

Качество: HDTVRip
Формат: AVI

Видео: 720x400 (1.80:1), 25 fps, XviD build 73 ~1548 kbps avg, 0.22 bit/pixel
Аудио: 48 kHz, AC3 Dolby Digital, 2/0 (L,R) ch, ~192.00 kbps avg
скриншот  скриншот  скриншот  скриншот  

General
Complete name : Y:\раздачи\Рожденная звездой.2015.HDTVRip.RG.Russkie.serialy.&.Files-x\01.Рожденная звездой.2015.HDTVRip.RG.Russkie.serialy.&.Files-x.avi
Format : AVI
Format/Info : Audio Video Interleave
File size : 550 MiB
Duration : 44mn 44s
Overall bit rate : 1 718 Kbps
Writing application : VirtualDubMod 1.5.10.3 | www.virtualdub-fr.org || (build 2550/release)
Writing library : VirtualDubMod build 2550/release

Video
ID : 0
Format : MPEG-4 Visual
Format profile : Advanced Simple@L5
Format settings, BVOP : 1
Format settings, QPel : No
Format settings, GMC : No warppoints
Format settings, Matrix : Custom
Codec ID : XVID
Codec ID/Hint : XviD
Duration : 44mn 44s
Bit rate : 1 517 Kbps
Width : 720 pixels
Height : 400 pixels
Display aspect ratio : 16:9
Frame rate : 25.000 fps
Color space : YUV
Chroma subsampling : 4:2:0
Bit depth : 8 bits
Scan type : Progressive
Compression mode : Lossy
Bits/(Pixel*Frame) : 0.211
Stream size : 485 MiB (88%)
Writing library : XviD 73

Audio
ID : 1
Format : AC-3
Format/Info : Audio Coding 3
Mode extension : CM (complete main)
Format settings, Endianness : Big
Codec ID : 2000
Duration : 44mn 44s
Bit rate mode : Constant
Bit rate : 192 Kbps
Channel(s) : 2 channels
Channel positions : Front: L R
Sampling rate : 48.0 KHz
Compression mode : Lossy
Stream size : 61.5 MiB (11%)
Alignment : Split accross interleaves
Interleave, duration : 40 ms (1.00 video frame)
Interleave, preload duration : 500 ms

pb.wtf



Скачать Рождённая звездой через торрент http://s50.radikal.ru/i130/1609/62/562d127dcb83.jpg Скачать фильм Рождённая звездой через торрент бесплантно в хорошем качестве Описание: История о любви и музыке на фоне эпохи. 50-е–60-е годы XX века подарили нам целую плеяду талантливых артистов, ставших легендами ... 10 10 2
Торрент: Зарегистрирован [2020-03-12 07:11] · скачан: 12 раз
Статус: √ проверено
Размер: 6.44 GB
Как cкачать? Как скачать Рождённая звездой через торрент | qTorrent

% Раздел Тема Автор DL S | L
Наши сериалы [ 7.98 GB ] Рождённая звездой / Сезон: 1 / Серии: 1-12 из 12 [2015 Музыкальный HDTVRip-AVC] bober100 Скачать
2 | 0
Наши сериалы [ 31.07 GB ] Рождённая звездой / Сезон: 1 / Серии: 1-12 из 12 [2015 Музыкальный HDTV 1080i] bober100 Скачать
1 | 0
Наши сериалы [ 18.61 GB ] Рождённая звездой / Сезон: 1 / Серии: 1-12 из 12 [2015 Музыкальный HDTVRip 720p] bober100 Скачать
1 | 0

28-11-2019 20:33  

Отключить всю рекламу на сайте

    Дорогой пользователь! Огромная просьба, поблагодарите релизера, оцените раздачу и оставьте свои комментарий, если Вы скачали Рождённая звездой через торрент бесплатно! Внесите свою лепту в развитие PiratBit!
    Комментировать посты могут только пользователи прошедшие не сложную регистрацию
    Показать сообщения:    

    Рождённая звездой через торрент
    Скачать бесплатно Рождённая звездой
    Рождённая звездой скачать торрент
    Рождённая звездой смотреть онлайн
    Cкачать фильм Рождённая звездой бесплатно
    Рождённая звездой скачать торрент в хорошем качестве
    Рождённая звездой смотреть онлайн бесплатно в хорошем качестве


    Вы не можете начинать темы
    Вы не можете отвечать на сообщения
    Вы не можете редактировать свои сообщения
    Вы не можете удалять свои сообщения
    Вы не можете голосовать в опросах
    Вы не можете прикреплять файлы к сообщениям
    Вы можете скачивать файлы