Всегда рабочее зеркало без VPN и Proxy просто перед .vidak.icu напиши любое слово или цифру, Пример http://9wme.vidak.icu

MVO

2 сезон

2 сезон

1

1 сезон

iTunes

2 сезон

13

1 сезон

Распродажа

pack

Рекомендуем

Пиратка

30

ВАЖНО

RePack

MK11

RePack

jed

RePack

fifa19

RePack

RDR2

RePack

NEED FOR SPEED™ PAYBACK

Кинопоиск HD

6 сезон

 Острые козырьки 6 сезон

Все сериалы

все сериалы на PB.wtf

RePack

FAR CRY 5

Anonymous, нам критически не хватает 5601 руб. на оплату серверов и переферии за Апрель, помоги нам пожалуйста, вся надежда только на тебя. В благодарность мы отключим тебе всю рекламу на сайте!

×
  
Magnet ссылка

Цвет из иных миров / Color Out of Space (Ричард Стэнли) [2019, Ужасы, фантастика, UHD BDRemux 2160p, (SDR)] DUB [iTunes] pb.wtf

Цвет из иных миров через торрент pb.wtf

Размер: 49.31 GB | Добавлен: 2 года 2 мес. назад | Торрент скачан:135 раз
Смотреть онлайн Цвет из иных миров | Скачать    Ребята, помогите собрать деньги на оплату серверов!!!

12-03-2020 13:45 Цвет из иных миров Скачать торрент  

Цвет из иных миров | Color Out of Space
Год выпуска: 2019
Страна: США, Малайзия, Португалия
Жанр: Ужасы, фантастика
Продолжительность: 01:50:00
Перевод: Дублированный | iTunes
Субтитры: Русские (forced,full), английские (full,SDH)

Режиссер: Ричард Стэнли

rating

В ролях: Николас Кейдж, Джоэли Ричардсон, Мадлен Артур, Эллиот Найт, Томми Чонг, Брендан Мейер, Джулиан Хиллиард, Джош С. Уоллер, К’Орианка Килчер, Мелисса Нирман и др.

Описание: Фермер Нэйтан Гарднер с женой и тремя детьми живёт в отдалении от цивилизации. Однажды рядом с его домом падает метеорит, на следующий же день исчезает, и теперь вокруг места падения разрастаются необычные цветы, а телевидение и мобильная связь работают с помехами. Приехавший проверить местную воду гидролог уверен, что пить её не стоит, но члены семьи Гарднер не придают этому особого значения и вскоре начинают очень странно себя вести.

Качество: UHD BDRemux 2160p
Формат: MKV

Видео: MPEG-H HEVC SDR, ~ 59.9 Mбит/с, 3840x2160p, 23.976 кадр/с
Аудио#1: Русский: 48 kHz, AC3, 3/2 (L,C,R,l,r) + LFE ch, 384 kbps / Дублированный, iTunes
Аудио#2: Английский: 48 kHz/24-bit, DTS-HD MA 7.1 , 3831 kbps
скриншот  скриншот  скриншот  скриншот  

General
Unique ID : 172422924195205547214808218801017695085 (0x81B77280FBD66180E6FFDA19E9EBAB6D)
Complete name : C:KINOColor.Out.of.Space.2019.BDRemux.2160p.SDR.by Silverok.mkv
Format : Matroska
Format version : Version 4
File size : 49.3 GiB
Duration : 1 h 50 min
Overall bit rate mode : Variable
Overall bit rate : 64.1 Mb/s
Movie name : Color.Out.of.Space.2019.BDRemux.2160p.SDR.by Silverok
Encoded date : UTC 2020-03-12 10:31:55
Writing application : mkvmerge v43.0.0 ('The Quartermaster') 64-bit
Writing library : libebml v1.3.10 + libmatroska v1.5.2
Cover : Yes
Attachments : cover.jpg

Video
ID : 1
Format : HEVC
Format/Info : High Efficiency Video Coding
Format profile : Main 10@L5.1@High
Codec ID : V_MPEGH/ISO/HEVC
Duration : 1 h 50 min
Bit rate : 59.9 Mb/s
Width : 3 840 pixels
Height : 2 160 pixels
Display aspect ratio : 16:9
Frame rate mode : Constant
Frame rate : 23.976 (24000/1001) FPS
Color space : YUV
Chroma subsampling : 4:2:0
Bit depth : 10 bits
Bits/(Pixel*Frame) : 0.301
Stream size : 46.1 GiB (93%)
Title : BDRemux.2160p.SDR.by Silverok
Default : Yes
Forced : No
Color range : Limited
Color primaries : BT.709
Transfer characteristics : BT.709
Matrix coefficients : BT.709

Audio #1
ID : 2
Format : AC-3
Format/Info : Audio Coding 3
Commercial name : Dolby Digital
Codec ID : A_AC3
Duration : 1 h 50 min
Bit rate mode : Constant
Bit rate : 384 kb/s
Channel(s) : 6 channels
Channel layout : L R C LFE Ls Rs
Sampling rate : 48.0 kHz
Frame rate : 31.250 FPS (1536 SPF)
Compression mode : Lossy
Stream size : 302 MiB (1%)
Title : Дублированный, iTunes
Language : Russian
Service kind : Complete Main
Default : Yes
Forced : No

Audio #2
ID : 3
Format : DTS XLL
Format/Info : Digital Theater Systems
Commercial name : DTS-HD Master Audio
Codec ID : A_DTS
Duration : 1 h 50 min
Bit rate mode : Variable
Bit rate : 3 831 kb/s
Channel(s) : 6 channels
Channel layout : C L R Ls Rs LFE
Sampling rate : 48.0 kHz
Frame rate : 93.750 FPS (512 SPF)
Bit depth : 24 bits
Compression mode : Lossless
Stream size : 2.95 GiB (6%)
Language : English
Default : No
Forced : No

Text #1
ID : 4
Format : UTF-8
Codec ID : S_TEXT/UTF8
Codec ID/Info : UTF-8 Plain Text
Duration : 1 h 2 min
Bit rate : 0 b/s
Count of elements : 8
Stream size : 400 Bytes (0%)
Title : Forced
Language : Russian
Default : Yes
Forced : No

Text #2
ID : 5
Format : UTF-8
Codec ID : S_TEXT/UTF8
Codec ID/Info : UTF-8 Plain Text
Duration : 1 h 45 min
Bit rate : 67 b/s
Count of elements : 1212
Stream size : 52.1 KiB (0%)
Title : Full
Language : Russian
Default : No
Forced : No

Text #3
ID : 6
Format : UTF-8
Codec ID : S_TEXT/UTF8
Codec ID/Info : UTF-8 Plain Text
Duration : 1 h 44 min
Bit rate : 45 b/s
Count of elements : 1234
Stream size : 35.2 KiB (0%)
Title : Full
Language : English
Default : No
Forced : No

Text #4
ID : 7
Format : UTF-8
Codec ID : S_TEXT/UTF8
Codec ID/Info : UTF-8 Plain Text
Duration : 1 h 45 min
Bit rate : 52 b/s
Count of elements : 1453
Stream size : 40.9 KiB (0%)
Title : SDH
Language : English
Default : No
Forced : No

Menu
00:00:00.000 : en:Mystery Meat
00:15:38.521 : en:Meteorite
00:30:02.092 : en:Man Of The House
00:43:30.441 : en:Contamination
01:00:23.620 : en:Help Me
01:10:49.495 : en:Believe
01:28:30.847 : en:I'll Be Back
01:46:28.340 : en:Credits

pb.wtf



Скачать Цвет из иных миров через торрент https://b.radikal.ru/b33/2003/f5/3bf86e6d07e6.jpg Скачать, смотреть онлайн Цвет из иных миров бесплантно в хорошем качестве Описание: Фермер Нэйтан Гарднер с женой и тремя детьми живёт в отдалении от цивилизации. Однажды рядом с его домом падает метеорит, на ... 8.8 10 6
Торрент: Зарегистрирован [2020-03-12 13:45] · скачан: 135 раз
Статус: √ проверено
Размер: 49.31 GB
Как cкачать? Как скачать Цвет из иных миров через торрент | UTorrent

% Раздел Тема Автор DL S | L
Фильмы [HD 720p, 1080p] (Хороший звук DUB, MVO) [ 13.87 GB ] Цвет из иных миров / Color Out of Space [2019 BDRip 1080p] [GER Transfer] +AVO [М. Яроцкий ] bober100 Скачать
1 | 0
Фильмы 2019-2020 [DVDrip, WEB-DLRip, HDrip] (DUB, MVO) [ 1.41 GB ] Цвет из иных миров / Color Out of Space [2019 BDRip] bober100 Скачать
2 | 0
Фильмы (Blu-ray, BD-Remux, HDDVD) [ 32.65 GB ] Цвет из иных миров / Color Out of Space [2019 BD Remux 1080p] [GER Transfer] +AVO [М. Яроцкий ] bober100 Скачать
1 | 0
Фильмы 2019-2020 [DVDrip, WEB-DLRip, HDrip] (DUB, MVO) [ 746 MB ] Цвет из иных миров / Color Out of Space [2019 HDRip] bober100 Скачать
1 | 0
Фильмы [HD 720p, 1080p] (Хороший звук DUB, MVO) [ 4.38 GB ] Цвет из иных миров / Color Out of Space [2019 BDRip 720p] bober100 Скачать
1 | 0

28-11-2019 20:33  

Отключить всю рекламу на сайте

12-03-2020 14:09 Цвет из иных миров Скачать торрент  

Дикая чушь! Просто шедевр идиотизма! Нудная тянущаяся бессмыслица. Уж на что я всеядный в плане мутоты всякой, но тут крайние минут сорок тупо не осилил. Настойчиво рекомендую к просмотру мазохистам и извращенцам.pb.wtf



21-07-2020 18:39 Цвет из иных миров Скачать торрент  

КОМЕНТЫ ЭТО ХОРОШО !!! ХОТЬ ПОНИМАЕШЬ КАЧАТЬ ИЛИ НЕТpb.wtf



    Дорогой пользователь! Огромная просьба, поблагодарите релизера, оцените раздачу и оставьте свои комментарий, если Вы скачали Цвет из иных миров через торрент бесплатно!
    Комментировать посты могут только пользователи прошедшие не сложную регистрацию
    Показать сообщения:    

    Цвет из иных миров через торрент
    Скачать бесплатно Цвет из иных миров
    Цвет из иных миров скачать торрент
    Цвет из иных миров смотреть онлайн
    Cкачать фильм Цвет из иных миров бесплатно
    Цвет из иных миров скачать торрент в хорошем качестве
    Цвет из иных миров смотреть онлайн бесплатно в хорошем качестве


    Вы не можете начинать темы
    Вы не можете отвечать на сообщения
    Вы не можете редактировать свои сообщения
    Вы не можете удалять свои сообщения
    Вы не можете голосовать в опросах
    Вы не можете прикреплять файлы к сообщениям
    Вы можете скачивать файлы