2 сезон

iTunes

MVO

1

2 сезон

iTunes

iTunes

1 сезон

RePack

30

Новинка

ВАЖНО

ИГРА 18+

pack

RePack

MK11
pack

Легкие деньги

RePack

jed

RePack

fifa19

RePack

RDR2

RePack

NEED FOR SPEED™ PAYBACK

4 сезон

9 сезон

Бесстыжие 9 сезон

Все сериалы

все сериалы на PB.wtf

RePack

FAR CRY 5

Anonymous, доброй ночи, мы не успеваем собрать деньги на оплату серверов за декабрь и январь, помогите нам пожалуйста в это трудное время. В качестве благодарности мы отключим Вам всю рекламу на сайте (укажите свой ник в строку Ваше имя)!

×
  
Magnet ссылка

Замена / The Substitute (Роберт Мэндел) [1996 г., боевик, триллер, драма, криминал, BDRip 720p / 60 FPS, Профессиональный многоголосый ( R5 Twister)] от R.G. HD-Films pb.wtf

Замена через торрент pb.wtf

Размер: 4.23 GB | Добавлен: 10 мес. назад | Торрент скачан:84 раза
Скачать  

13-03-2020 16:13 Замена Скачать торрент  

Замена / The Substitute
Год выпуска: 1996
Страна: США
Жанр: боевик, триллер, драма, криминал
Продолжительность: 01:55:03
Перевод: Профессиональный многоголосый
Субтитры: Russian, English

Режиссер: Роберт Мэндел

Премьера в мире: 19 апреля 1996

rating

В ролях: Том Беренджер, Марк Энтони, Рэймонд Крус, Уильям Форсайт, Луис Гузман, Ричард Брукс, Дайан Венора, Гленн Пламмер, Шэррон Корли, Винсент Лареска, ...

Описание: «Солдат Удачи» Шейл, уволенный из ЦРУ, выходит на временную работу вместо своей подруги Джейн, учительницы одной из средних школ Майами. Здесь он узнает о существовании банды «К. Р.» («Короли Разрушения»), процветающей за счет наркобизнеса. Чтобы разобраться с мафией, Шейл обращается за помощью к своим друзьям-наемникам…

Качество: BDRip 720p / 60 FPS
Формат: MKV
Видео кодек: H.264
Аудио кодек: AC3
Видео: x264, 1280 x 688 ( 1,85:1 ), 4882 kbps, 60,000 fps, ( 0.092 bpp)
Аудио#1: Русский, AC-3, 48.0 KHz, 6 ch, 384 Kbps ( MVO R5 Twister )
Релиз от:

скриншот   скриншот   скриншот   скриншот   скриншот  Автор рипа: slaventi-69
x264 [info]: frame I:2431 Avg QP:16.84 size: 99227
x264 [info]: frame P:98112 Avg QP:19.71 size: 24667
x264 [info]: frame B:313218 Avg QP:22.84 size: 4938
x264 [info]: consecutive B-frames: 1.7% 3.7% 10.0% 15.3% 61.5% 7.8%


Общее
Уникальный идентификатор : 197669468936459031772574239722806393138 (0x94B5C1433243DB99AB68AA25EFBB3932)
Полное имя : F:\The.Substitute.(1996).BDRip.720p.(60 Fps).mkv
Формат : Matroska
Версия формата : Version 4
Размер файла : 4,23 Гбайт
Продолжительность : 1 ч. 54 м.
Общий поток : 5270 Кбит/сек
Название фильма : Замена / The Substitute (1996) BDRip 720p (60 Fps)
Дата кодирования : UTC 2020-02-29 17:08:02
Программа кодирования : mkvmerge v42.0.0 ('Overtime') 64-bit
Библиотека кодирования : libebml v1.3.10 + libmatroska v1.5.2

Видео
Идентификатор : 1
Формат : AVC
Формат/Информация : Advanced Video Codec
Профиль формата : High@L4.1
Настройки формата : CABAC / 8 Ref Frames
Параметр CABAC формата : Да
Параметр RefFrames формата : 8 кадров
Идентификатор кодека : V_MPEG4/ISO/AVC
Продолжительность : 1 ч. 54 м.
Битрейт : 4882 Кбит/сек
Ширина : 1280 пикселей
Высота : 688 пикселей
Соотношение сторон : 1,85:1
Режим частоты кадров : Постоянный
Частота кадров : 60,000 кадров/сек
Цветовое пространство : YUV
Субдискретизация насыщенности : 4:2:0
Битовая глубина : 8 бит
Тип развёртки : Прогрессивная
Бит/(Пиксели*Кадры) : 0.092
Размер потока : 3,92 Гбайт (93%)
Заголовок : slaventi-69 ( R.G. HD-Films | 60 fps )
Библиотека кодирования : x264 core 130 r2273 b3065e6
Настройки программы : cabac=1 / ref=8 / deblock=1:-1:-1 / analyse=0x3:0x133 / me=umh / subme=9 / psy=1 / psy_rd=1.00:0.00 / mixed_ref=1 / me_range=26 / chroma_me=1 / trellis=2 / 8x8dct=1 / cqm=0 / deadzone=21,11 / fast_pskip=0 / chroma_qp_offset=-2 / threads=12 / lookahead_threads=2 / sliced_threads=0 / nr=0 / decimate=1 / interlaced=0 / bluray_compat=0 / constrained_intra=0 / bframes=5 / b_pyramid=2 / b_adapt=2 / b_bias=0 / direct=3 / weightb=1 / open_gop=0 / weightp=2 / keyint=250 / keyint_min=25 / scenecut=40 / intra_refresh=0 / rc_lookahead=50 / rc=crf / mbtree=1 / crf=17.0 / qcomp=0.60 / qpmin=0 / qpmax=69 / qpstep=4 / ip_ratio=1.40 / aq=1:1.00
Язык : English
Default : Да
Forced : Нет

Аудио
Идентификатор : 2
Формат : AC-3
Формат/Информация : Audio Coding 3
Коммерческое название : Dolby Digital
Идентификатор кодека : A_AC3
Продолжительность : 1 ч. 54 м.
Вид битрейта : Постоянный
Битрейт : 384 Кбит/сек
Каналы : 6 каналов
Channel layout : L R C LFE Ls Rs
Частота : 48,0 КГц
Частота кадров : 31,250 кадров/сек (1536 SPF)
Битовая глубина : 16 бит
Метод сжатия : С потерями
Размер потока : 316 Мбайт (7%)
Заголовок : MVO R5 Twister
Язык : Russian
ServiceKind/String : Complete Main
Default : Да
Forced : Нет

Текст #1
Идентификатор : 3
Формат : UTF-8
Идентификатор кодека : S_TEXT/UTF8
Идентификатор кодека/Информация : UTF-8 Plain Text
Продолжительность : 1 ч. 50 м.
Битрейт : 90 бит/сек
ElementCount : 1000
Размер потока : 72,6 Кбайт (0%)
Язык : Russian
Default : Нет
Forced : Нет

Текст #2
Идентификатор : 4
Формат : UTF-8
Идентификатор кодека : S_TEXT/UTF8
Идентификатор кодека/Информация : UTF-8 Plain Text
Продолжительность : 1 ч. 48 м.
Битрейт : 51 бит/сек
ElementCount : 1187
Размер потока : 41,3 Кбайт (0%)
Язык : English
Default : Нет
Forced : Нет

Просьба к переливающим на другие сайты, в оформлении указывайте пожалуйста авторство группы R.G. HD-Filmspb.wtf



Скачать Замена через торрент http://s001.radikal.ru/i194/1511/a4/0e7a733a11dd.jpg Скачать фильм Замена через торрент бесплантно в хорошем качестве Описание: «Солдат Удачи» Шейл, уволенный из ЦРУ, выходит на временную работу вместо своей подруги Джейн, учительницы одной из средних школ ... 10 10 7
Торрент: Зарегистрирован [2020-03-13 16:13] · скачан: 84 раз
Статус: √ проверено
Размер: 4.23 GB
Как cкачать? Как скачать Замена через торрент | UTorrent

28-11-2019 20:33  

Отключить всю рекламу на сайте

13-03-2020 18:07 Замена Скачать торрент  

Один из моих любимых боевиков. Спасибо огромное!!!!pb.wtf



13-03-2020 19:42 Замена Скачать торрент  

Смотрите в удовольствие.pb.wtf



14-03-2020 03:45 Замена Скачать торрент  

спасибо релизеру. фильм офигенный!
1080р будет?pb.wtf



14-03-2020 16:10 Замена Скачать торрент  

edapush писал(а):

спасибо релизеру. фильм офигенный!
1080р будет?

Простите но нет, только в 720ppb.wtf



    Дорогой пользователь! Огромная просьба, поблагодарите релизера, оцените раздачу и оставьте свои комментарий, если Вы скачали Замена через торрент бесплатно! Внесите свою лепту в развитие PiratBit!
    Комментировать посты могут только пользователи прошедшие не сложную регистрацию
    Показать сообщения:    

    Замена через торрент
    Скачать бесплатно Замена
    Замена скачать торрент
    Замена смотреть онлайн
    Cкачать фильм Замена бесплатно
    Замена скачать торрент в хорошем качестве
    Замена смотреть онлайн бесплатно в хорошем качестве


    Вы не можете начинать темы
    Вы не можете отвечать на сообщения
    Вы не можете редактировать свои сообщения
    Вы не можете удалять свои сообщения
    Вы не можете голосовать в опросах
    Вы не можете прикреплять файлы к сообщениям
    Вы можете скачивать файлы