Ссылка на приватное зеркало нашего сайта всего за 1$. Внимание количество ограничено!!!

2 сезон

iTunes

1 сезон

1

2 сезон

2 сезон

iTunes

1 сезон

RePack

30

Новинка

ВАЖНО

ИГРА 18+

pack

RePack

MK11
pack

Забери бонус

RePack

jed

!!Акция!!

Alien_Rage

RePack

fifa19

RePack

Assassins Creed: Odyssey

RePack

NEED FOR SPEED™ PAYBACK

4 сезон

9 сезон

Бесстыжие 9 сезон

Все сериалы

все сериалы на PB.wtf

RePack

FAR CRY 5
  

Комната желаний / The Room (Кристиан Волькман) [2019, фантастика, драма, детектив, BD Remux 1080p] DUB (rus, ukr) [iTunes] pb.wtf

Комната желаний через торрент pb.wtf

Раздают: 1 [ 3 KB/s ]
Размер: 18.95 GB | Добавлен: 8 мес. назад | Торрент скачан:86 раз
Скачать  

13-03-2020 20:12 Комната желаний Скачать торрент  

Комната желаний | The Room
Год выпуска: 2019
Страна: Франция, Люксембург, Бельгия
Жанр: фантастика, драма, детектив
Студия: Bidibul Productions, Les Films du Poisson, Versus Production
Продолжительность: 01:39:11
Перевод: Дублированный | iTunes
Субтитры: Русские (Full), английские

Режиссер: Кристиан Волькман

rating

В ролях: Ольга Куриленко, Кевин Янссенс, Марианн Бург, Френсис Чепмен, Джон Фландерс, Эрик Жигу, Michaël Kahya, Кэрол Уэйерс, Джошуа Уилсон

Описание: Влюбленная пара решает переехать в уединенный особняк. Занимаясь ремонтом старинного дома, они обнаруживают замурованную комнату, исполняющую любое их желание. Миллионы долларов, подлинник Ван Гога и самые роскошные наряды - чего бы они ни захотели, моментально материализуется. Однако, наигравшись вдоволь, молодая женщина осмеливается пожелать себе долгожданного ребенка, даже не подозревая, какую сделку совершает...

Качество: BD Remux 1080p
Формат: MKV

Видео: MPEG-4 AVC, 1920x1080, 25.0 Mbit/s, 24.000 fps
Аудио #01: 48 kHz, AC3, 5.1, 384 Kbps | iTunes | RUS |
Аудио #02: 48 kHz, AAC, 2.0, 126 Kbps | iTunes | UKR |
Аудио #03: 48 kHz, DTS-HD MA, 5.1, 1743 Kbps | Оригинал | ENG |
скриншот  скриншот  скриншот  скриншот  скриншот  

General
Unique ID : 173135526069518935628987576452769270866 (0x8240B07D234B5D79C0860297B18A4C52)
Complete name : E:Video111The.Room.2019.BDREMUX.1080p.seleZen.mkv
Format : Matroska
Format version : Version 4
File size : 18.9 GiB
Duration : 1 h 39 min
Overall bit rate mode : Variable
Overall bit rate : 27.3 Mb/s
Movie name : The Room 2019 from селезень
Encoded date : UTC 2020-03-13 19:59:03
Writing application : mkvmerge v40.0.0 ('Old Town Road + Pony') 64-bit
Writing library : libebml v1.3.9 + libmatroska v1.5.2

Video
ID : 1
Format : MPEG Video
Format version : Version 2
Format profile : Main@High
Format settings : BVOP
Format settings, BVOP : Yes
Format settings, Matrix : Default
Format settings, GOP : M=3, N=12
Codec ID : V_MPEG2
Codec ID/Info : MPEG 1 or 2 Video
Duration : 1 h 39 min
Bit rate mode : Variable
Bit rate : 25.0 Mb/s
Maximum bit rate : 40.0 Mb/s
Width : 1 920 pixels
Height : 1 080 pixels
Display aspect ratio : 16:9
Frame rate mode : Constant
Frame rate : 24.000 FPS
Color space : YUV
Chroma subsampling : 4:2:0
Bit depth : 8 bits
Scan type : Progressive
Compression mode : Lossy
Bits/(Pixel*Frame) : 0.503
Time code of first frame : 00:00:00:00
Time code source : Group of pictures header
GOP, Open/Closed : Closed
Stream size : 17.3 GiB (92%)
Language : English
Default : Yes
Forced : No

Audio #1
ID : 2
Format : AC-3
Format/Info : Audio Coding 3
Commercial name : Dolby Digital
Codec ID : A_AC3
Duration : 1 h 39 min
Bit rate mode : Constant
Bit rate : 384 kb/s
Channel(s) : 6 channels
Channel layout : L R C LFE Ls Rs
Sampling rate : 48.0 kHz
Frame rate : 31.250 FPS (1536 SPF)
Compression mode : Lossy
Stream size : 272 MiB (1%)
Title : Dub
Language : Russian
Service kind : Complete Main
Default : Yes
Forced : Yes

Audio #2
ID : 3
Format : AC-3
Format/Info : Audio Coding 3
Commercial name : Dolby Digital
Codec ID : A_AC3
Duration : 1 h 39 min
Bit rate mode : Constant
Bit rate : 192 kb/s
Channel(s) : 2 channels
Channel layout : L R
Sampling rate : 48.0 kHz
Frame rate : 31.250 FPS (1536 SPF)
Compression mode : Lossy
Stream size : 136 MiB (1%)
Title : Dub
Language : Ukrainian
Service kind : Complete Main
Default : No
Forced : No

Audio #3
ID : 4
Format : DTS XLL
Format/Info : Digital Theater Systems
Commercial name : DTS-HD Master Audio
Codec ID : A_DTS
Duration : 1 h 39 min
Bit rate mode : Variable
Bit rate : 1 743 kb/s
Channel(s) : 6 channels
Channel layout : C L R Ls Rs LFE
Sampling rate : 48.0 kHz
Frame rate : 93.750 FPS (512 SPF)
Bit depth : 16 bits
Compression mode : Lossless
Stream size : 1.21 GiB (6%)
Title : Original
Language : English
Default : No
Forced : No

Text #1
ID : 5
Format : UTF-8
Codec ID : S_TEXT/UTF8
Codec ID/Info : UTF-8 Plain Text
Duration : 1 h 33 min
Bit rate : 36 b/s
Count of elements : 639
Stream size : 24.9 KiB (0%)
Title : Full
Language : Russian
Default : No
Forced : No

Text #2
ID : 6
Format : UTF-8
Codec ID : S_TEXT/UTF8
Codec ID/Info : UTF-8 Plain Text
Duration : 1 h 32 min
Bit rate : 22 b/s
Count of elements : 636
Stream size : 15.5 KiB (0%)
Title : Full
Language : English
Default : No
Forced : No

Menu
00:00:00.000 : en:Глава 01
00:09:01.500 : en:Глава 02
00:19:51.500 : en:Глава 03
00:29:38.500 : en:Глава 04
00:38:45.500 : en:Глава 05
00:49:33.000 : en:Глава 06
01:02:01.000 : en:Глава 07
01:10:37.500 : en:Глава 08
01:20:13.500 : en:Глава 09
01:30:57.500 : en:Глава 10

pb.wtf



Скачать Комната желаний через торрент https://img16.lostpic.net/2019/12/11/13f08963daab208a14ba9b053a50ed7c.jpg Скачать фильм Комната желаний через торрент бесплантно в хорошем качестве Описание: Влюбленная пара решает переехать в уединенный особняк. Занимаясь ремонтом старинного дома, они обнаруживают замурованную комнату, ... 10 10 6
Info! Золотая раздача, скачанное не засчитывается.
Торрент: Зарегистрирован [2020-03-13 20:12] · скачан: 86 раз
Статус: √ проверено
Размер: 18.95 GB
Как cкачать? Как скачать Комната желаний через торрент | qTorrent

% Раздел Тема Автор DL S | L
Фильмы 2019-2020 [DVDrip, WEB-DLRip, HDrip] (DUB, MVO) [ 746 MB ] Комната желаний / The Room [2019 HDRip] bober100 Скачать
1 | 0
Фильмы [HD 720p, 1080p] (Хороший звук DUB, MVO) [ 3.75 GB ] Комната желаний / The Room [2019 BDRip 720p] DUB bober100 Скачать
4 | 0
Фильмы 2019-2020 [DVDrip, WEB-DLRip, HDrip] (DUB, MVO) [ 1.82 GB ] Комната желаний / The Room [2019 BDRip-AVC] - ExKinoRay Enigma2010 Скачать
4 | 0
Фильмы [HD 720p, 1080p] (Хороший звук DUB, MVO) [ 7.77 GB ] Комната желаний / The Room [2019 BDRip 1080p] DUB bober100 Скачать
3 | 0
Фильмы (WEB-DL 720p, 1080p) [ 3.6 GB ] Комната желаний / The Room [2019 WEB-DL 1080p] DUB bober100 Скачать
6 | 0
Фильмы 2019-2020 [DVDrip, WEB-DLRip, HDrip] (DUB, MVO) [ 1.56 GB ] Комната желаний / The Room [2019 WEB-DLRip-AVC] - ExKinoRay Enigma2010 Скачать
62 | 3
Фильмы 2019-2020 [DVDrip, WEB-DLRip, HDrip] (DUB, MVO) [ 1.42 GB ] Комната желаний / The Room [2019 BDRip] bober100 Скачать
5 | 0

28-11-2019 20:33  

Отключить всю рекламу на сайте

    Дорогой пользователь! Огромная просьба, поблагодарите релизера, оцените раздачу и оставьте свои комментарий, если Вы скачали Комната желаний через торрент бесплатно! Внесите свою лепту в развитие PiratBit!
    Комментировать посты могут только пользователи прошедшие не сложную регистрацию
    Показать сообщения:    

    Комната желаний через торрент
    Скачать бесплатно Комната желаний
    Комната желаний скачать торрент
    Комната желаний смотреть онлайн
    Cкачать фильм Комната желаний бесплатно
    Комната желаний скачать торрент в хорошем качестве
    Комната желаний смотреть онлайн бесплатно в хорошем качестве


    Вы не можете начинать темы
    Вы не можете отвечать на сообщения
    Вы не можете редактировать свои сообщения
    Вы не можете удалять свои сообщения
    Вы не можете голосовать в опросах
    Вы не можете прикреплять файлы к сообщениям
    Вы можете скачивать файлы