2 сезон

iTunes

MVO

1

2 сезон

iTunes

iTunes

1 сезон

RePack

30

Ultimate

ВАЖНО

ИГРА 18+

pack

RePack

MK11
pack

Легкие деньги

RePack

jed

RePack

fifa19

RePack

RDR2

RePack

NEED FOR SPEED™ PAYBACK

4 сезон

9 сезон

Бесстыжие 9 сезон

Все сериалы

все сериалы на PB.wtf

RePack

FAR CRY 5

Anonymous, добрый вечер, мы не успеваем собрать деньги на оплату серверов за декабрь и январь, помогите нам пожалуйста в это трудное время. В качестве благодарности мы отключим Вам всю рекламу на сайте (укажите свой ник в строку Ваше имя)!

×
  
Magnet ссылка

Королевство / Kingdom / Сезон: 2 / Серии 1-6 из 6 (Ким Сон-хун) [2020, Ужасы, боевик, триллер, WEBRip 1080p] [DVO] (Gears Media) pb.wtf

Королевство через торрент pb.wtf

Размер: 17.03 GB | Добавлен: 10 мес. назад | Торрент скачан:120 раз
Скачать  

14-03-2020 07:51 Королевство Скачать торрент  

Королевство / Kingdom
Информация о сериале

Год выпуска: 2020
Жанр: Ужасы, боевик, триллер
Страна: Корея Южная, США
Продолжительность: 1 x ~ 00:55:00
Перевод: Профессиональный (двухголосый) *Gears Media *
Субтитры: нет

Режиссер: Ким Сон-хун

В ролях: Чу Джи-хун, Рю Сын-нён, Пэ Ду-на, Ким Сан-хо, Хо Джун-хо, Ким Сон-гю, Чон Сок-хо, Ким Хе-джун, Чон Сог-вон, Чин Сон-гю

О фильме: Зомби-эпидемия разворачивается в период династии Чосон. Долго болевший правитель умирает, но возвращается к жизни в виде плотоядной нежити и начинает бродить по дворцу, поэтому наследному принцу приходится расследовать причины произошедшего и спасать страну от быстро распространяющейся заразы.

rating

Файл

Качество: WEBRip 1080p
Формат: MKV
Видео: X264, 1920×960 at 23.976 fps, ~9000 kbps avg
Звук: Русский / AC3 / 2 Ch / 384 kbs
скриншот  скриншот  скриншот  
General
Unique ID : 243045663372900598640629459791916285398 (0xB6D8E4604B50E127013CEA39E94FBDD6)
Complete name : F:\ФИЛЬМЫ\Kingdom S02 (2020) 1080p WEBRip [Gears Media]\Kingdom S02E01 (2020) 1080p WEBRip [Gears Media].mkv
Format : Matroska
Format version : Version 4 / Version 2
File size : 3.29 GiB
Duration : 52mn 56s
Overall bit rate : 8 901 Kbps
Encoded date : UTC 2020-03-13 14:31:42
Writing application : mkvmerge v43.0.0 ('The Quartermaster') 64-bit
Writing library : libebml v1.3.10 + libmatroska v1.5.2

Video
ID : 1
Format : AVC
Format/Info : Advanced Video Codec
Format profile : High@L4.1
Format settings, CABAC : Yes
Format settings, ReFrames : 4 frames
Codec ID : V_MPEG4/ISO/AVC
Duration : 52mn 56s
Bit rate : 8 340 Kbps
Width : 1 920 pixels
Height : 960 pixels
Display aspect ratio : 2.000
Frame rate mode : Constant
Frame rate : 23.976 fps
Color space : YUV
Chroma subsampling : 4:2:0
Bit depth : 8 bits
Scan type : Progressive
Bits/(Pixel*Frame) : 0.189
Stream size : 3.08 GiB (94%)
Language : English
Default : Yes
Forced : No
Color range : Limited
Color primaries : BT.709
Transfer characteristics : BT.709
Matrix coefficients : BT.709

Audio
ID : 2
Format : AC-3
Format/Info : Audio Coding 3
Mode extension : CM (complete main)
Format settings, Endianness : Big
Codec ID : A_AC3
Duration : 52mn 56s
Bit rate mode : Constant
Bit rate : 384 Kbps
Channel(s) : 2 channels
Channel positions : Front: L R
Sampling rate : 48.0 KHz
Compression mode : Lossy
Stream size : 145 MiB (4%)
Language : Russian
Default : Yes
Forced : Yes
pb.wtf



Скачать Королевство через торрент https://i110.fastpic.ru/big/2019/0128/f1/a55eddd522abe060b3a2514bf66e0df1.jpg Скачать фильм Королевство через торрент бесплантно в хорошем качестве О фильме: Зомби-эпидемия разворачивается в период династии Чосон. Долго болевший правитель умирает, но возвращается к жизни в виде ... 10 10 3
Торрент: Зарегистрирован [2020-03-14 07:51] · скачан: 120 раз
Статус: √ проверено
Размер: 17.03 GB
Как cкачать? Как скачать Королевство через торрент | UTorrent

% Раздел Тема Автор DL S | L
Зарубежные сериалы [ 749 MB ] Королевство / Kingdeom / Kingdom / Сезон: 2 / Серии: 1- из 6 [2020 WEB-DLRip] MVO [LostFilm] bober100 Скачать
1 | 0
Зарубежные сериалы [ 3.8 GB ] Королевство / Kingdeom / Kingdom / Сезон: 2 / Серии: 1-6 из 6 [2020 WEB-DLRip] MVO [HDRezka] bober100 Скачать
1 | 0
Зарубежные сериалы [ 3.09 GB ] Королевство / Kingdeom / Kingdom / Сезон: 2 / Серии: 1- из 6 [2020 WEB-DL 1080p] MVO [LostFilm] bober100 Скачать
1 | 0
Зарубежные сериалы [ 13.14 GB ] Королевство / Kingdom / Сезон: 2 / Серии 1-6 из 6 [2020 WEB-DL 1080p] [MVO] killermax2013 Скачать
1 | 0

28-11-2019 20:33  

Отключить всю рекламу на сайте

    Дорогой пользователь! Огромная просьба, поблагодарите релизера, оцените раздачу и оставьте свои комментарий, если Вы скачали Королевство через торрент бесплатно! Внесите свою лепту в развитие PiratBit!
    Комментировать посты могут только пользователи прошедшие не сложную регистрацию
    Показать сообщения:    

    Королевство через торрент
    Скачать бесплатно Королевство
    Королевство скачать торрент
    Королевство смотреть онлайн
    Cкачать фильм Королевство бесплатно
    Королевство скачать торрент в хорошем качестве
    Королевство смотреть онлайн бесплатно в хорошем качестве


    Вы не можете начинать темы
    Вы не можете отвечать на сообщения
    Вы не можете редактировать свои сообщения
    Вы не можете удалять свои сообщения
    Вы не можете голосовать в опросах
    Вы не можете прикреплять файлы к сообщениям
    Вы можете скачивать файлы