2 сезон

iTunes

1 сезон

1

iTunes

iTunes

iTunes

1 сезон

RePack

30

ИГРА 18+

pack

ВАЖНО

!!Акция!!

Alien_RageХит недели

RePack

MK11
pack

Забери бонус

RePack

jed

!!Акция!!

Alien_Rage

RePack

fifa19

RePack

Assassins Creed: Odyssey

RePack

NEED FOR SPEED™ PAYBACK

4 сезон

9 сезон

Бесстыжие 9 сезон

Все сериалы

все сериалы на PB.wtf

RePack

FAR CRY 5
  

Грешник / Серии: 1-2 из 2 (Дмитрий Константинов) [2015, Драма, WEB-DL 1080p] pb.wtf

Грешник через торрент pb.wtf

Размер: 3.4 GB | Добавлен: 7 мес. назад | Торрент скачан:35 раз
Скачать  

15-03-2020 09:35 Грешник Скачать торрент  

Грешник
Год выпуска: 2015
Страна: Россия
Жанр: Драма
Продолжительность: ~ 00:50:00
Субтитры: отсутствуют

Режиссер: Дмитрий Константинов

rating

В ролях: Андрей Смоляков, Евгений Антропов, Любовь Аксёнова, Дмитрий Куличков, Дарья Урсуляк, Дмитрий Мухамадеев, Мария Болонкина, Владимир Капустин, Владимир Виноградов, Иван Дремач, Александр Городиский

Описание: Когда Владу было 5 лет, его мать убили, и в ее смерти все последующие годы он винит отца. На 20-ю годовщину трагедии юноша решает расставить точки над "i" и собирает всех родственников. В процессе поиска и встреч с ними Влад выясняет факты, которые меняют всё...

Качество: WEB-DL 1080p
Формат: MKV

Видео: MPEG-4 AVC, ~ 5000 Кбит/с, 1920x1080
Аудио: AC3, 2 ch, 192 Кбит/с
скриншот  скриншот  скриншот  скриншот  

Общее
Уникальный идентификатор : 206922160469411159683973321274810466590 (0x9BABC22D174B6960A29AD2224594811E)
Полное имя : D:\Greshnik.2015.WEB-DL.(1080p).ExKinoRay\Greshnik.(01.seriya).2015.WEB-DL.(1080p).ExKinoRay.mkv
Формат : Matroska
Версия формата : Version 2
Размер файла : 1,71 Гбайт
Продолжительность : 48 м. 40 с.
Общий поток : 5019 Кбит/сек
Дата кодирования : UTC 2016-01-27 21:18:25
Программа кодирования : mkvmerge v5.8.0 ('No Sleep / Pillow') built on Sep 2 2012 15:37:04
Библиотека кодирования : libebml v1.2.3 + libmatroska v1.3.0

Видео
Идентификатор : 1
Формат : AVC
Формат/Информация : Advanced Video Codec
Профиль формата : High@L4.1
Параметр CABAC формата : Да
Параметр RefFrames формата : 5 кадров
Идентификатор кодека : V_MPEG4/ISO/AVC
Продолжительность : 48 м. 40 с.
Битрейт : 4827 Кбит/сек
Ширина : 1920 пикселей
Высота : 1080 пикселей
Соотношение сторон : 16:9
Режим частоты кадров : Постоянный
Частота кадров : 25,000 кадров/сек
Цветовое пространство : YUV
Субдискретизация насыщенности : 4:2:0
Битовая глубина : 8 бит
Тип развёртки : Прогрессивная
Бит/(Пиксели*Кадры) : 0.091
Размер потока : 1,61 Гбайт (94%)
Язык : Russian
Default : Да
Forced : Да

Аудио
Идентификатор : 2
Формат : AC-3
Формат/Информация : Audio Coding 3
Расширение режима : CM (complete main)
Параметр Endianness формата : Big
Идентификатор кодека : A_AC3
Продолжительность : 48 м. 40 с.
Вид битрейта : Постоянный
Битрейт : 192 Кбит/сек
Каналы : 2 канала
Расположение каналов : Front: L R
Частота : 48,0 КГц
Частота кадров : 31,250 кадров/сек (1536 spf)
Метод сжатия : С потерями
Размер потока : 66,9 Мбайт (4%)
Язык : Russian
Default : Да
Forced : Да

pb.wtf



Скачать Грешник через торрент http://s020.radikal.ru/i707/1601/69/1f1ca8edfe4c.jpg Скачать фильм Грешник через торрент бесплантно в хорошем качестве Описание: Когда Владу было 5 лет, его мать убили, и в ее смерти все последующие годы он винит отца. На 20-ю годовщину трагедии юноша решает ... 9.6 10 5
Торрент: Зарегистрирован [2020-03-15 09:35] · скачан: 35 раз
Статус: √ проверено
Размер: 3.4 GB
Как cкачать? Как скачать Грешник через торрент | qTorrent

% Раздел Тема Автор DL S | L
Зарубежные сериалы [ 5.96 GB ] Грешница / Грешник / The Sinner / Сезон: 2 / Серии: 1-8 из 8 [2018 WEB-DLRip] MVO [NewStudio] bober100 Скачать
2 | 0
Зарубежные сериалы [ 5.96 GB ] Грешница / Грешник / The Sinner / Сезон: 2 / Серии: 1-8 из 8 [2018 WEB-DL 720p] [MVO] killermax2013 Скачать
1 | 0
Зарубежные сериалы [ 4.38 GB ] Грешница / Грешник / The Sinner / Сезон: 2 / Серии: 1-8 из 8 [2018 WEB-DLRip] MVO [Jaskier] bober100 Скачать
1 | 0
Зарубежные сериалы [ 11.94 GB ] Грешница / Грешник / The Sinner / Сезон: 2 / Серии: 1-8 из 8 [2018 WEB-DL 1080p] [MVO] killermax2013 Скачать
1 | 0
Наши сериалы [ 1.37 GB ] Грешник / 1 Сезон Серии:1-2 из 2 [2015 SATRip] lug30 Скачать
1 | 0

28-11-2019 20:33  

Отключить всю рекламу на сайте

    Дорогой пользователь! Огромная просьба, поблагодарите релизера, оцените раздачу и оставьте свои комментарий, если Вы скачали Грешник через торрент бесплатно! Внесите свою лепту в развитие PiratBit!
    Комментировать посты могут только пользователи прошедшие не сложную регистрацию
    Показать сообщения:    

    Грешник через торрент
    Скачать бесплатно Грешник
    Грешник скачать торрент
    Грешник смотреть онлайн
    Cкачать фильм Грешник бесплатно
    Грешник скачать торрент в хорошем качестве
    Грешник смотреть онлайн бесплатно в хорошем качестве


    Вы не можете начинать темы
    Вы не можете отвечать на сообщения
    Вы не можете редактировать свои сообщения
    Вы не можете удалять свои сообщения
    Вы не можете голосовать в опросах
    Вы не можете прикреплять файлы к сообщениям
    Вы можете скачивать файлы