Ссылка на приватное зеркало нашего сайта всего за 1$. Внимание количество ограничено!!!

2 сезон

iTunes

1 сезон

1

iTunes

iTunes

iTunes

1 сезон

RePack

30

ИГРА 18+

pack

ВАЖНО

!!Акция!!

Alien_RageХит недели

RePack

MK11
pack

Забери бонус

RePack

jed

!!Акция!!

Alien_Rage

RePack

fifa19

RePack

Assassins Creed: Odyssey

RePack

NEED FOR SPEED™ PAYBACK

4 сезон

9 сезон

Бесстыжие 9 сезон

Все сериалы

все сериалы на PB.wtf

RePack

FAR CRY 5
  

Одноклассники смерти / Серии: 1-4 из 4 (Филипп Коршунов) [2020, Детектив, триллер, WEB-DL 720p] pb.wtf

Одноклассники смерти через торрент pb.wtf

Размер: 3.81 GB | Добавлен: 7 мес. назад | Торрент скачан:44 раза
Скачать  

15-03-2020 18:43 Одноклассники смерти Скачать торрент  

Одноклассники смерти Год выпуска: 2020
Страна: Россия
Жанр: Детектив, триллер
Продолжительность: ~ 00:45:00 серия
Субтитры: отсутствуют

Режиссер: Филипп Коршунов

В ролях: Станислав Бондаренко, Екатерина Копанова, Елена Полянская, Анастасия Савосина, Владимир Довжик, Сергей Борисов, Евгений Березовский, Никита Абдулов, Людмила Караяниди, Ольга Зейгер, Ксения Щербакова, Марк Бондаренко, Максим Демченко, Александр Левин, Павел Абдалов, Максим Коновалов, Елена Любимова, Евгения Ярушникова, Сергей Фишер, Галина Шмакова, Игорь Кулачко, Александр Тютин, Иван Коряковский, Марина Куделинская

Описание: Блестящий журналист Дмитрий Полуянов прекрасно знал, что его невеста Надя Митрофанова - девушка непредсказуемая. Но он и предположить не мог, какие тайны прошлого откроются перед ним накануне свадьбы. Одно за другим происходят убийства и совершенно непонятно, кто окажется следующей жертвой. По романам Анны и Сергея Литвиновых.

Качество: WEB-DL 720p
Формат: MKV

Видео: 1280х720 (16:9), 25 fps, AVC MPEG-4 (x264), High@L4.1 ~ 2500 kbps avg, 0.109 bit/pixel
Аудио: 48 kHz, AC3, 2 ch, 256 kbps avg
скриншот  скриншот  скриншот  скриншот  

Общее
Уникальный идентификатор : 202319701579444349986364358987287684181 (0x98355B6EE97E89C69C88F1AFF348E455)
Полное имя : D:\Odnoklassniki.smerti.2020.WEB-DL.(720p).ExKinoRay\Odnoklassniki.smerti.E01.2020.WEB-DL.(720p).ExKinoRay.mkv
Формат : Matroska
Версия формата : Version 4 / Version 2
Размер файла : 920 Мбайт
Продолжительность : 45 м. 32 с.
Общий поток : 2824 Кбит/сек
Дата кодирования : UTC 2020-03-15 18:05:22
Программа кодирования : mkvmerge v6.9.1 ('Blue Panther') 64bit built on Apr 18 2014 18:23:38
Библиотека кодирования : libebml v1.3.0 + libmatroska v1.4.1

Видео
Идентификатор : 1
Формат : AVC
Формат/Информация : Advanced Video Codec
Профиль формата : High@L4
Параметр CABAC формата : Да
Параметр RefFrames формата : 4 кадра
Идентификатор кодека : V_MPEG4/ISO/AVC
Продолжительность : 45 м. 32 с.
Битрейт : 2512 Кбит/сек
Ширина : 1280 пикселей
Высота : 720 пикселей
Соотношение сторон : 16:9
Режим частоты кадров : Постоянный
Частота кадров : 25,000 кадров/сек
Цветовое пространство : YUV
Субдискретизация насыщенности : 4:2:0
Битовая глубина : 8 бит
Тип развёртки : Прогрессивная
Бит/(Пиксели*Кадры) : 0.109
Размер потока : 818 Мбайт (89%)
Default : Да
Forced : Нет

Аудио
Идентификатор : 2
Формат : AC-3
Формат/Информация : Audio Coding 3
Расширение режима : CM (complete main)
Параметр Endianness формата : Big
Идентификатор кодека : A_AC3
Продолжительность : 45 м. 32 с.
Вид битрейта : Постоянный
Битрейт : 256 Кбит/сек
Каналы : 2 канала
Расположение каналов : Front: L R
Частота : 48,0 КГц
Частота кадров : 31,250 кадров/сек (1536 spf)
Метод сжатия : С потерями
Размер потока : 83,4 Мбайт (9%)
Язык : Russian
Default : Да
Forced : Нет

pb.wtf



Скачать Одноклассники смерти через торрент http://i111.fastpic.ru/big/2020/0314/db/d3fd313ed97a07bf4a6deddabea5f3db.jpg Скачать фильм Одноклассники смерти через торрент бесплантно в хорошем качестве Описание: Блестящий журналист Дмитрий Полуянов прекрасно знал, что его невеста Надя Митрофанова - девушка непредсказуемая. Но он и ... 10 10 3
Торрент: Зарегистрирован [2020-03-15 18:43] · скачан: 44 раз
Статус: √ проверено
Размер: 3.81 GB
Как cкачать? Как скачать Одноклассники смерти через торрент | qTorrent

% Раздел Тема Автор DL S | L
Наши сериалы [ 7.25 GB ] Одноклассники смерти / Серии: 1-4 из 4 [2020 WEB-DL 1080p] bober100 Скачать
1 | 0
Наши сериалы [ 2.41 GB ] Одноклассники смерти / Серии: 1-4 из 4 [2020 WEB-DLRip] bober100 Скачать
2 | 0
Наши сериалы [ 2.4 GB ] Одноклассники смерти / Серии: 1-4 из 4 [2020 WEB-DLRip-AVC] bober100 Скачать
1 | 0
Наши сериалы [ 2.26 GB ] Одноклассники смерти / Серии: 1-4 из 4 [2020 экранизация SATRip-AVC] aleksan55 Скачать
1 | 0

28-11-2019 20:33  

Отключить всю рекламу на сайте

    Дорогой пользователь! Огромная просьба, поблагодарите релизера, оцените раздачу и оставьте свои комментарий, если Вы скачали Одноклассники смерти через торрент бесплатно! Внесите свою лепту в развитие PiratBit!
    Комментировать посты могут только пользователи прошедшие не сложную регистрацию
    Показать сообщения:    

    Одноклассники смерти через торрент
    Скачать бесплатно Одноклассники смерти
    Одноклассники смерти скачать торрент
    Одноклассники смерти смотреть онлайн
    Cкачать фильм Одноклассники смерти бесплатно
    Одноклассники смерти скачать торрент в хорошем качестве
    Одноклассники смерти смотреть онлайн бесплатно в хорошем качестве


    Вы не можете начинать темы
    Вы не можете отвечать на сообщения
    Вы не можете редактировать свои сообщения
    Вы не можете удалять свои сообщения
    Вы не можете голосовать в опросах
    Вы не можете прикреплять файлы к сообщениям
    Вы можете скачивать файлы