2 сезон

iTunes

MVO

1

2 сезон

iTunes

iTunes

1 сезон

RePack

30

Новинка

ВАЖНО

ИГРА 18+

pack

RePack

MK11
pack

Легкие деньги

RePack

jed

RePack

fifa19

RePack

RDR2

RePack

NEED FOR SPEED™ PAYBACK

4 сезон

9 сезон

Бесстыжие 9 сезон

Все сериалы

все сериалы на PB.wtf

RePack

FAR CRY 5

Anonymous, добрый день, мы не успеваем собрать деньги на оплату серверов за декабрь и январь, помогите нам пожалуйста в это трудное время. В качестве благодарности мы отключим Вам всю рекламу на сайте (укажите свой ник в строку Ваше имя)!

×
  
Magnet ссылка

Шахматист / Fahim (Пьер-Франсуа Мартен-Лаваль) [2019, драма, комедия, биография, BDRip 1080p] DUB [iTunes] pb.wtf

Шахматист через торрент pb.wtf

Раздают: 2 [ 0 KB/s ]
Размер: 8.3 GB | Добавлен: 10 мес. назад | Торрент скачан:132 раза
Скачать  

16-03-2020 05:04 Шахматист Скачать торрент  

Шахматист | Fahim
Год выпуска: 2019
Страна: Франция
Студия: Waiting For Cinema, Wild Bunch, Alicéléo
Жанр: драма, комедия, биография
Продолжительность: 01:48:03
Перевод: Дублированный | iTunes
Субтитры: отсутствуют

Режиссер: Пьер-Франсуа Мартен-Лаваль

rating

В ролях: Изабель Нанти, Жерар Депардьё, Ассад Ахмед, Мизанур Рахаман, Сара Туффик Отман-Шмитт, Виктор Эрру, Тьяго Туби, Александр Нод, Пьер Гомме, Аксель Керавец

Описание: Юный шахматный гений Фахим вместе с отцом вынужденно покидает родной Бангладеш и находит убежище в Париже. Здесь мальчик знакомится с ворчуном Сильвианом, одним из лучших гроссмейстеров Франции. Неприязнь между ними перерастет в дружбу, которая подарит им новый смысл жизни и приведет как к досадным поражениям, так и к головокружительным победам.

Качество: BDRip 1080p
Формат: MKV

Видео: MPEG-4 AVC, 1920x804, 10.0 Mbit/s, 23.976 fps
Аудио #01: 48 kHz, AC3, 5.1, 384 Kbps | iTunes | RUS |
Аудио #02: 48 kHz, AC3, 5.1, 640 Kbps | Оригинал | FRE |
скриншот  скриншот  скриншот  скриншот  скриншот  

General
Unique ID : 332206746921741224609751672955954008292 (0xF9ECB1318E2E8C0F1394877254CC10E4)
Complete name : E:Video111Fahim.2019.BDRip.1080p.seleZen.mkv
Format : Matroska
Format version : Version 4
File size : 8.30 GiB
Duration : 1 h 48 min
Overall bit rate : 11.0 Mb/s
Movie name : Fahim 2019 from селезень
Encoded date : UTC 2020-03-16 04:51:15
Writing application : mkvmerge v40.0.0 ('Old Town Road + Pony') 64-bit
Writing library : libebml v1.3.9 + libmatroska v1.5.2

Video
ID : 1
Format : AVC
Format/Info : Advanced Video Codec
Format profile : High@L4.1
Format settings : CABAC / 5 Ref Frames
Format settings, CABAC : Yes
Format settings, Reference : 5 frames
Codec ID : V_MPEG4/ISO/AVC
Duration : 1 h 48 min
Bit rate : 10 000 kb/s
Width : 1 920 pixels
Height : 804 pixels
Display aspect ratio : 2.40:1
Frame rate mode : Constant
Frame rate : 23.976 (24000/1001) FPS
Color space : YUV
Chroma subsampling : 4:2:0
Bit depth : 8 bits
Scan type : Progressive
Bits/(Pixel*Frame) : 0.270
Stream size : 7.53 GiB (91%)
Title : Encoded by seleZen
Writing library : x264 core 142 r2431+42 c69a006 tMod [8-bit@all X86_64]
Encoding settings : cabac=1 / ref=5 / deblock=1:-2:-2 / analyse=0x3:0x133 / me=umh / subme=10 / psy=1 / fade_compensate=0.00 / psy_rd=1.00:0.00 / mixed_ref=1 / me_range=32 / chroma_me=1 / trellis=2 / 8x8dct=1 / cqm=0 / deadzone=21,11 / fast_pskip=0 / chroma_qp_offset=-2 / threads=24 / lookahead_threads=4 / sliced_threads=0 / nr=0 / decimate=0 / interlaced=0 / bluray_compat=0 / constrained_intra=0 / fgo=0 / bframes=8 / b_pyramid=2 / b_adapt=2 / b_bias=0 / direct=3 / weightb=1 / open_gop=0 / weightp=2 / keyint=240 / keyint_min=23 / scenecut=40 / intra_refresh=0 / rc_lookahead=50 / rc=2pass / mbtree=0 / bitrate=10000 / ratetol=1.0 / qcomp=0.60 / qpmin=0:0:0 / qpmax=51:51:51 / qpstep=4 / cplxblur=20.0 / qblur=0.5 / vbv_maxrate=50000 / vbv_bufsize=62500 / nal_hrd=none / filler=0 / ip_ratio=1.40 / pb_ratio=1.30 / aq=3:0.80 / aq-sensitivity=10.00 / aq-factor=1.00:1.00:1.00 / aq2=0 / aq3=0
Language : English
Default : Yes
Forced : No

Audio #1
ID : 2
Format : AC-3
Format/Info : Audio Coding 3
Commercial name : Dolby Digital
Codec ID : A_AC3
Duration : 1 h 47 min
Bit rate mode : Constant
Bit rate : 384 kb/s
Channel(s) : 6 channels
Channel layout : L R C LFE Ls Rs
Sampling rate : 48.0 kHz
Frame rate : 31.250 FPS (1536 SPF)
Compression mode : Lossy
Stream size : 296 MiB (3%)
Title : iTunes
Language : Russian
Service kind : Complete Main
Default : Yes
Forced : Yes

Audio #2
ID : 3
Format : AC-3
Format/Info : Audio Coding 3
Commercial name : Dolby Digital
Codec ID : A_AC3
Duration : 1 h 48 min
Bit rate mode : Constant
Bit rate : 640 kb/s
Channel(s) : 6 channels
Channel layout : L R C LFE Ls Rs
Sampling rate : 48.0 kHz
Frame rate : 31.250 FPS (1536 SPF)
Compression mode : Lossy
Stream size : 495 MiB (6%)
Title : Original
Language : French
Service kind : Complete Main
Default : No
Forced : No

Menu
00:00:00.000 : de:Глава 01
00:08:33.221 : de:Глава 02
00:18:07.461 : de:Глава 03
00:26:29.129 : de:Глава 04
00:35:36.134 : de:Глава 05
00:44:38.801 : de:Глава 06
00:53:43.262 : de:Глава 07
01:01:44.242 : de:Глава 08
01:07:53.903 : de:Глава 09
01:20:31.326 : de:Глава 10
01:30:17.412 : de:Глава 11
01:42:16.339 : de:Глава 12

pb.wtf



Скачать Шахматист через торрент https://img10.lostpic.net/2020/03/16/db7ef45d1f9f0b0c860a79a1a0d2d186.jpg Скачать фильм Шахматист через торрент бесплантно в хорошем качестве Описание: Юный шахматный гений Фахим вместе с отцом вынужденно покидает родной Бангладеш и находит убежище в Париже. Здесь мальчик ... 8.9 10 9
Info! Золотая раздача, скачанное не засчитывается.
Торрент: Зарегистрирован [2020-03-16 05:04] · скачан: 132 раз
Статус: √ проверено
Размер: 8.3 GB
Как cкачать? Как скачать Шахматист через торрент | UTorrent

% Раздел Тема Автор DL S | L
Фильмы [HD 720p, 1080p] (Хороший звук DUB, MVO) [ 3.85 GB ] Шахматист / Fahim [2019 биография BDRip 720p] bober100 Скачать
1 | 0
Фильмы (Blu-ray, BD-Remux, HDDVD) [ 17.49 GB ] Шахматист / Fahim [2019 биография BD Remux 1080p] bober100 Скачать
1 | 0
Фильмы (WEB-DL 720p, 1080p) [ 3.96 GB ] Шахматист / Fahim [2019 биография WEB-DL 1080p] bober100 Скачать
1 | 0
Фильмы 2019-2020 [DVDrip, WEB-DLRip, HDrip] (DUB, MVO) [ 1.41 GB ] Шахматист / Fahim [2019 биография BDRip] bober100 Скачать
1 | 0

28-11-2019 20:33  

Отключить всю рекламу на сайте

    Дорогой пользователь! Огромная просьба, поблагодарите релизера, оцените раздачу и оставьте свои комментарий, если Вы скачали Шахматист через торрент бесплатно! Внесите свою лепту в развитие PiratBit!
    Комментировать посты могут только пользователи прошедшие не сложную регистрацию
    Показать сообщения:    

    Шахматист через торрент
    Скачать бесплатно Шахматист
    Шахматист скачать торрент
    Шахматист смотреть онлайн
    Cкачать фильм Шахматист бесплатно
    Шахматист скачать торрент в хорошем качестве
    Шахматист смотреть онлайн бесплатно в хорошем качестве


    Вы не можете начинать темы
    Вы не можете отвечать на сообщения
    Вы не можете редактировать свои сообщения
    Вы не можете удалять свои сообщения
    Вы не можете голосовать в опросах
    Вы не можете прикреплять файлы к сообщениям
    Вы можете скачивать файлы