Ссылка на приватное зеркало нашего сайта всего за 1$. Внимание количество ограничено!!!

2 сезон

iTunes

1 сезон

1

2 сезон

2 сезон

iTunes

1 сезон

RePack

30

Ultimate

ВАЖНО

ИГРА 18+

pack

RePack

MK11
pack

Забери бонус

RePack

jed

!!Акция!!

Alien_Rage

RePack

fifa19

RePack

Assassins Creed: Odyssey

RePack

NEED FOR SPEED™ PAYBACK

4 сезон

9 сезон

Бесстыжие 9 сезон

Все сериалы

все сериалы на PB.wtf

RePack

FAR CRY 5
  

Темные воды / Dark Waters (Тодд Хейнс) [2019, Триллер, драма, биография, история, BD Remux1080p] DUB pb.wtf

Темные воды через торрент pb.wtf

Раздают: 1 [ 0 KB/s ]
Размер: 34.98 GB | Добавлен: 8 мес. назад | Торрент скачан:43 раза
Скачать  

17-03-2020 10:03 Темные воды Скачать торрент  

Темные воды | Dark Waters Год выпуска: 2019
Страна: США
Студия: Killer Films, Participant
Жанр: Триллер, драма, биография, история
Продолжительность: 02:07:03
Перевод: Дублированный
Субтитры: Русские (forced), английские

Режиссер: Тодд Хейнс

rating

В ролях: Марк Руффало, Энн Хэтэуэй, Тим Роббинс, Уильям Джексон Харпер, Билл Пуллман, Мэр Уиннингхэм, Виктор Гарбер, Луиза Краузе, Билл Кэмп, Скарлет Хикс, Кевин Краули

Описание: В основе сюжета лежит статья Натаниэля Рича «Адвокат, ставший худшим кошмаром компании DuPont», которая была опубликована в The New York Times в 2016 году. Главный герой — бывший корпоративный юрист Роберт Биллот, который внезапно решает заняться вопросами защиты окружающей среды. Тогда ему попадается громкое дело против химической корпорации Дюпон, загрязняющей воздух и воду на протяжении долгого времени. Именно они изобрели нейлон, неопрен и тефлон.

Качество: BD Remux 1080p
Формат: MKV

Видео: MPEG-4 AVC, 1920x1080, 35.9 Mbit/s, 23.976 fps
Аудио #01: 48 kHz, AC3, 5.1, 384 Kbps | Дублированный | RUS |
Аудио #02: 48 kHz, DTS-HD MA, 5.1, 3117 Kbps | Оригинал | ENG |
скриншот  скриншот  скриншот  скриншот  скриншот  

General
Unique ID : 136128500766494296498773655720872526182 (0x6669654574E20CAE533AC5DC5C964166)
Complete name : E:Video111Dark.Waters.2019.BDREMUX.1080p.seleZen.mkv
Format : Matroska
Format version : Version 4
File size : 35.0 GiB
Duration : 2 h 7 min
Overall bit rate mode : Variable
Overall bit rate : 39.4 Mb/s
Movie name : Dark Waters 2019 from селезень
Encoded date : UTC 2020-03-17 09:27:30
Writing application : mkvmerge v40.0.0 ('Old Town Road + Pony') 64-bit
Writing library : libebml v1.3.9 + libmatroska v1.5.2

Video
ID : 1
Format : AVC
Format/Info : Advanced Video Codec
Format profile : High@L4.1
Format settings : CABAC / 4 Ref Frames
Format settings, CABAC : Yes
Format settings, Reference : 4 frames
Format settings, GOP : M=3, N=12
Codec ID : V_MPEG4/ISO/AVC
Duration : 2 h 7 min
Bit rate mode : Variable
Bit rate : 35.9 Mb/s
Maximum bit rate : 40.0 Mb/s
Width : 1 920 pixels
Height : 1 080 pixels
Display aspect ratio : 16:9
Frame rate mode : Constant
Frame rate : 23.976 (24000/1001) FPS
Color space : YUV
Chroma subsampling : 4:2:0
Bit depth : 8 bits
Scan type : Progressive
Bits/(Pixel*Frame) : 0.722
Stream size : 31.9 GiB (91%)
Language : English
Default : No
Forced : No

Audio #1
ID : 2
Format : AC-3
Format/Info : Audio Coding 3
Commercial name : Dolby Digital
Codec ID : A_AC3
Duration : 2 h 7 min
Bit rate mode : Constant
Bit rate : 384 kb/s
Channel(s) : 6 channels
Channel layout : L R C LFE Ls Rs
Sampling rate : 48.0 kHz
Frame rate : 31.250 FPS (1536 SPF)
Compression mode : Lossy
Stream size : 349 MiB (1%)
Title : Dub
Language : Russian
Service kind : Complete Main
Default : Yes
Forced : Yes

Audio #2
ID : 3
Format : DTS XLL
Format/Info : Digital Theater Systems
Commercial name : DTS-HD Master Audio
Codec ID : A_DTS
Duration : 2 h 7 min
Bit rate mode : Variable
Bit rate : 3 117 kb/s
Channel(s) : 6 channels
Channel layout : C L R Ls Rs LFE
Sampling rate : 48.0 kHz
Frame rate : 93.750 FPS (512 SPF)
Bit depth : 24 bits
Compression mode : Lossless
Stream size : 2.77 GiB (8%)
Title : Original
Language : English
Default : No
Forced : No

Text #1
ID : 4
Format : UTF-8
Codec ID : S_TEXT/UTF8
Codec ID/Info : UTF-8 Plain Text
Duration : 2 h 0 min
Bit rate : 3 b/s
Count of elements : 39
Stream size : 2.88 KiB (0%)
Title : Forced
Language : Russian
Default : Yes
Forced : Yes

Text #2
ID : 5
Format : UTF-8
Codec ID : S_TEXT/UTF8
Codec ID/Info : UTF-8 Plain Text
Duration : 2 h 1 min
Bit rate : 66 b/s
Count of elements : 1683
Stream size : 59.0 KiB (0%)
Language : English
Default : No
Forced : No

Menu
00:00:00.000 : :Chapter 01
00:10:08.191 : :Chapter 02
00:18:18.431 : :Chapter 03
00:28:20.449 : :Chapter 04
00:36:48.957 : :Chapter 05
00:44:45.892 : :Chapter 06
00:50:17.056 : :Chapter 07
01:04:17.395 : :Chapter 08
01:08:46.080 : :Chapter 09
01:17:23.639 : :Chapter 10
01:23:51.151 : :Chapter 11
01:25:32.002 : :Chapter 12
01:31:40.995 : :Chapter 13
01:36:14.978 : :Chapter 14
01:38:55.763 : :Chapter 15
01:42:26.724 : :Chapter 16
01:45:11.180 : :Chapter 17
01:50:32.084 : :Chapter 18
02:00:16.584 : :Chapter 19
02:02:02.565 : :Chapter 20

pb.wtf



Скачать Темные воды через торрент https://a.radikal.ru/a05/2002/f4/12fc1cab643c.png Скачать фильм Темные воды через торрент бесплантно в хорошем качестве Описание: В основе сюжета лежит статья Натаниэля Рича «Адвокат, ставший худшим кошмаром компании DuPont», которая была опубликована в The ... 9.8 10 5
Торрент: Зарегистрирован [2020-03-17 10:03] · скачан: 43 раз
Статус: √ проверено
Размер: 34.98 GB
Как cкачать? Как скачать Темные воды через торрент | qTorrent

% Раздел Тема Автор DL S | L
Фильмы [HD 720p, 1080p] (Хороший звук DUB, MVO) [ 18.06 GB ] Темные воды / Dark Waters [2019 биография история BDRip 1080p] DUB bober100 Скачать
2 | 0
Фильмы [HD 720p, 1080p] (Хороший звук DUB, MVO) [ 8.79 GB ] Темные воды / Dark Waters [2019 биография история BDRip 720p] DUB bober100 Скачать
5 | 0
Фильмы 2019-2020 [DVDrip, WEB-DLRip, HDrip] (DUB, MVO) [ 2.13 GB ] Темные воды / Dark Waters [2019 биография история BDRip] DUB bober100 Скачать
2 | 0
Фильмы 2019-2020 [DVDrip, WEB-DLRip, HDrip] (DUB, MVO) [ 1.46 GB ] Темные воды / Dark Waters [2019 биография история BDRip] DUB bober100 Скачать
74 | 0

28-11-2019 20:33  

Отключить всю рекламу на сайте

    Дорогой пользователь! Огромная просьба, поблагодарите релизера, оцените раздачу и оставьте свои комментарий, если Вы скачали Темные воды через торрент бесплатно! Внесите свою лепту в развитие PiratBit!
    Комментировать посты могут только пользователи прошедшие не сложную регистрацию
    Показать сообщения:    

    Темные воды через торрент
    Скачать бесплатно Темные воды
    Темные воды скачать торрент
    Темные воды смотреть онлайн
    Cкачать фильм Темные воды бесплатно
    Темные воды скачать торрент в хорошем качестве
    Темные воды смотреть онлайн бесплатно в хорошем качестве


    Вы не можете начинать темы
    Вы не можете отвечать на сообщения
    Вы не можете редактировать свои сообщения
    Вы не можете удалять свои сообщения
    Вы не можете голосовать в опросах
    Вы не можете прикреплять файлы к сообщениям
    Вы можете скачивать файлы