1 сезон

1 сезон

iTunes

1

iTunes

Кинопоиск HD

iTunes

13

1 сезон

RePack

30

Deluxe

ВАЖНО

ИГРА 18+

pack

RePack

MK11
pack

Легкие деньги

RePack

jed

RePack

fifa19

RePack

RDR2

RePack

NEED FOR SPEED™ PAYBACK

4 сезон

9 сезон

Бесстыжие 9 сезон

Все сериалы

все сериалы на PB.wtf

RePack

FAR CRY 5
  
Magnet ссылка

В шаге от рая / Сезон: 1 / Серии: 1-16 из 16 (Евгений Семёнов) [2020, Мелодрама, драма, HDTVRip 720p] pb.wtf

В шаге от рая через торрент pb.wtf

Размер: 20.6 GB | Добавлен: 1 год 1 мес. назад | Торрент скачан:35 раз
Скачать  

17-03-2020 11:35 В шаге от рая Скачать торрент  

В шаге от рая
Год выпуска: 2020
Страна: Россия
Жанр: Мелодрама, драма
Продолжительность: ~ 00:50:00 серия
Субтитры: отсутствуют

Режиссер: Евгений Семёнов



В ролях: Мария Миронова мл., Ярослав Бойко, Игорь Бочкин, Анна Легчилова, Ольга Павловец, Надежда Маркина, Олег Чугунов, Илья Рябов, Иван Киренков, Светлана Новицкая

Описание: Это была обычная семья. Не лучше и не хуже других. Они были счастливы, но не понимали этого. В неожиданном крупном лотерейном выигрыше увидели шанс стать такими, каким хотели быть в глазах окружающих — красивыми, успешными, желанными, близкими друзьями, идеальными вторыми половинами. Деньги решили их внешние проблемы, но внутри семьи начался кромешный ад — а ведь им казалось, что они всего лишь в шаге от рая.

Качество: HDTVRip 720p
Формат: MKV

Видео: 1280х720(16:9), 25 fps, AVC MPEG-4 (x264), High@L4.1 ~ 3500 kbps , 0.152 bit/pixel
Аудио: 48 kHz, AC3, 2 ch, ~ 192 kbps avg
скриншот  скриншот  скриншот  скриншот  

Общее
Уникальный идентификатор : 176042661108003846084201766603079316377 (0x8470954FFC9FAEDC90082176B4A47399)
Полное имя : D:\V.shage.ot.raya.2020.HDTVRip.(720p).ExKinoRay\V.shage.ot.raya.E01.2020.HDTVRip.(720p).ExKinoRay.mkv
Формат : Matroska
Версия формата : Version 4 / Version 2
Размер файла : 1,29 Гбайт
Продолжительность : 49 м. 53 с.
Общий поток : 3693 Кбит/сек
Дата кодирования : UTC 2020-03-17 11:08:00
Программа кодирования : mkvmerge v6.9.1 ('Blue Panther') 64bit built on Apr 18 2014 18:23:38
Библиотека кодирования : libebml v1.3.0 + libmatroska v1.4.1

Видео
Идентификатор : 1
Формат : AVC
Формат/Информация : Advanced Video Codec
Профиль формата : High@L4.1
Параметр CABAC формата : Да
Параметр RefFrames формата : 9 кадров
Идентификатор кодека : V_MPEG4/ISO/AVC
Продолжительность : 49 м. 53 с.
Битрейт : 3500 Кбит/сек
Ширина : 1280 пикселей
Высота : 720 пикселей
Соотношение сторон : 16:9
Режим частоты кадров : Постоянный
Частота кадров : 25,000 кадров/сек
Цветовое пространство : YUV
Субдискретизация насыщенности : 4:2:0
Битовая глубина : 8 бит
Тип развёртки : Прогрессивная
Бит/(Пиксели*Кадры) : 0.152
Размер потока : 1,19 Гбайт (93%)
Библиотека кодирования : x264 core 146 r2538 121396c
Настройки программы : cabac=1 / ref=9 / deblock=1:-3:-3 / analyse=0x3:0x113 / me=umh / subme=11 / psy=1 / psy_rd=1.00:0.20 / mixed_ref=1 / me_range=32 / chroma_me=1 / trellis=2 / 8x8dct=1 / cqm=0 / deadzone=21,11 / fast_pskip=1 / chroma_qp_offset=-3 / threads=24 / lookahead_threads=10 / sliced_threads=0 / nr=0 / decimate=0 / interlaced=0 / bluray_compat=0 / constrained_intra=0 / bframes=10 / b_pyramid=2 / b_adapt=2 / b_bias=0 / direct=3 / weightb=1 / open_gop=0 / weightp=2 / keyint=250 / keyint_min=25 / scenecut=40 / intra_refresh=0 / rc_lookahead=60 / rc=2pass / mbtree=1 / bitrate=3500 / ratetol=1.0 / qcomp=0.60 / qpmin=0 / qpmax=69 / qpstep=4 / cplxblur=20.0 / qblur=0.5 / vbv_maxrate=14000 / vbv_bufsize=14000 / nal_hrd=none / filler=0 / ip_ratio=1.40 / aq=3:1.40
Default : Нет
Forced : Нет
Цветовой диапазон : Limited
Основные цвета : BT.709
Характеристики трансфера : BT.709
Коэффициенты матрицы : BT.709

Аудио
Идентификатор : 2
Формат : AC-3
Формат/Информация : Audio Coding 3
Расширение режима : CM (complete main)
Параметр Endianness формата : Big
Идентификатор кодека : A_AC3
Продолжительность : 49 м. 53 с.
Вид битрейта : Постоянный
Битрейт : 192 Кбит/сек
Каналы : 2 канала
Расположение каналов : Front: L R
Частота : 48,0 КГц
Частота кадров : 31,250 кадров/сек (1536 spf)
Метод сжатия : С потерями
Размер потока : 68,5 Мбайт (5%)
Язык : Russian
Default : Да
Forced : Да

Внимание! Раздача ведётся путём добавления новых серий; при каждом добавлении создаётся новый торрент.
Чтобы начать докачку новой серии, пользователям необходимо сделать следующее:
1. Остановить скачивание;
2. Удалить старый торрент у себя из клиента (старые серии удалять не надо);
3. Скачать новый торрент и запустить его у себя в клиенте вместо старого, при этом указать клиенту путь в старую папку куда и должно происходить скачивание новых серий. Ваш клиент при этом должен произвести хеширование (проверку) старой папки и будет докачивать только те серии, которых у вас ещё нет. Старые серии при этом не удаляются, а продолжают раздаваться! Eсли вы уже удалили старые серии, то предотвратить повторную закачку старых серий можно, отжав галочку в соответствующих местах при запуске нового торрента.
pb.wtf



Скачать В шаге от рая через торрент https://i111.fastpic.ru/big/2020/0316/6a/7e444fe186711f8f692ea9a74158816a.jpg Скачать фильм В шаге от рая через торрент бесплантно в хорошем качестве Описание: Это была обычная семья. Не лучше и не хуже других. Они были счастливы, но не понимали этого. В неожиданном крупном лотерейном ... 10 10 3
Торрент: Зарегистрирован [2020-03-27 12:40] · скачан: 35 раз
Статус: √ проверено
Размер: 20.6 GB
Как cкачать? Как скачать В шаге от рая через торрент | UTorrent

% Раздел Тема Автор DL S | L
Наши сериалы [ 42.52 GB ] В шаге от рая / Сезон: 1 / Серии: 1-16 из 16 [2020 Мело HDTV 1080i] bober100 Скачать
1 | 0

28-11-2019 20:33  

Отключить всю рекламу на сайте

    Дорогой пользователь! Огромная просьба, поблагодарите релизера, оцените раздачу и оставьте свои комментарий, если Вы скачали В шаге от рая через торрент бесплатно! Внесите свою лепту в развитие PiratBit!
    Комментировать посты могут только пользователи прошедшие не сложную регистрацию
    Показать сообщения:    

    В шаге от рая через торрент
    Скачать бесплатно В шаге от рая
    В шаге от рая скачать торрент
    В шаге от рая смотреть онлайн
    Cкачать фильм В шаге от рая бесплатно
    В шаге от рая скачать торрент в хорошем качестве
    В шаге от рая смотреть онлайн бесплатно в хорошем качестве


    Вы не можете начинать темы
    Вы не можете отвечать на сообщения
    Вы не можете редактировать свои сообщения
    Вы не можете удалять свои сообщения
    Вы не можете голосовать в опросах
    Вы не можете прикреплять файлы к сообщениям
    Вы можете скачивать файлы