2 сезон

iTunes

MVO

1

2 сезон

iTunes

iTunes

1 сезон

RePack

30

Новинка

ВАЖНО

ИГРА 18+

pack

RePack

MK11
pack

Легкие деньги

RePack

jed

RePack

fifa19

RePack

RDR2

RePack

NEED FOR SPEED™ PAYBACK

4 сезон

9 сезон

Бесстыжие 9 сезон

Все сериалы

все сериалы на PB.wtf

RePack

FAR CRY 5

Anonymous, доброй ночи, мы не успеваем собрать деньги на оплату серверов за декабрь и январь, помогите нам пожалуйста в это трудное время. В качестве благодарности мы отключим Вам всю рекламу на сайте (укажите свой ник в строку Ваше имя)!

×
  
Magnet ссылка

Королевство / Kingdeom / Kingdom / Сезон: 2 / Серии: 1-6 из 6 (Сон Хун Ким) [2020, Ужасы, боевик, триллер, детектив, WEB-DLRip] MVO [HDRezka] pb.wtf

Королевство через торрент pb.wtf

Размер: 3.8 GB | Добавлен: 9 мес. назад | Торрент скачан:73 раза
Скачать  

17-03-2020 12:44 Королевство Скачать торрент  

Королевство | Kingdeom | Kingdom
Год выпуска: 2020
Страна: Южная Корея
Жанр: Ужасы, боевик, триллер, детектив
Продолжительность: ~ 00:52:00 серия
Перевод: Профессиональный многоголосый | HDRezka
Субтитры: Русские, английские (SDH), корейские (SDH)

Режиссер: Сон Хун Ким

rating

В ролях: Джи Хун Чжу, Ду На Пэ, Сын Рён Рю, Хе Джун Ким, Сан Хо Ким (I), Сон Гю Ким (I), Джун Хо Хо, Сок Хо Чон, Сон Гю Чжин, Бён Ын Пак, Тхэ Хун Ким, Ха Мин, Чжон Су Ким, Джианна Чон

Описание: Чосон после разорительной войны. Долго болевший правитель умирает, но возвращается к жизни в виде плотоядной нежити, что тщательно скрывает королевский советник Чо, при этом не забывая регулярно кормить монарха придворными. После неудачной попытки увидеться с отцом наследный принц Ли Чхан, рискуя быть обвинённым в государственной измене, покидает дворец, чтобы встретиться с лечившим правителя лекарем Ли. Прибыв в сельскую больницу, где практиковал Ли, принц и его телохранитель обнаруживают полный разгром и кучи трупов, спрятанных от солнца.

Качество: WEB-DLRip
Формат: AVI

Видео: XviD, 704x352, 23,976 fps, ~ 1600 kbps
Аудио 1: 48 kHz, AC3 2 ch, ~192 kbps|HDRezka|
Аудио 2: Krean 48 kHz, AC3 2 ch, ~192 kbps
скриншот  скриншот  скриншот  скриншот  

Format : AVI
Format/Info : Audio Video Interleave
File size : 749 MiB
Duration : 52mn 23s
Overall bit rate : 1 998 Kbps
Movie name : Королевство 2х01: Эпизод 1
Director : Бёдвар (WEB-DLRip)
Writing application : VirtualDubModRus 1.5.10.2 (build 2542/release)
Comment : 17.03.2020

Video
ID : 0
Format : MPEG-4 Visual
Format profile : Advanced Simple@L5
Format settings, BVOP : 1
Format settings, QPel : No
Format settings, GMC : No warppoints
Format settings, Matrix : Default (MPEG)
Codec ID : XVID
Codec ID/Hint : XviD
Duration : 52mn 23s
Bit rate : 1 600 Kbps
Width : 704 pixels
Height : 352 pixels
Display aspect ratio : 2.000
Frame rate : 23.976 (24000/1001) fps
Color space : YUV
Chroma subsampling : 4:2:0
Bit depth : 8 bits
Scan type : Progressive
Compression mode : Lossy
Bits/(Pixel*Frame) : 0.269
Stream size : 600 MiB (80%)
Writing library : XviD 67

Audio #1
ID : 1
Format : AC-3
Format/Info : Audio Coding 3
Mode extension : CM (complete main)
Format settings, Endianness : Big
Codec ID : 2000
Duration : 52mn 23s
Bit rate mode : Constant
Bit rate : 192 Kbps
Channel(s) : 2 channels
Channel positions : Front: L R
Sampling rate : 48.0 KHz
Frame rate : 31.250 fps (1536 spf)
Compression mode : Lossy
Stream size : 72.0 MiB (10%)
Alignment : Split accross interleaves
Interleave, duration : 42 ms (1.00 video frame)
Interleave, preload duratio : 500 ms
Title : HDRezka (rus)

Audio #2
ID : 2
Format : AC-3
Format/Info : Audio Coding 3
Mode extension : CM (complete main)
Format settings, Endianness : Big
Codec ID : 2000
Duration : 52mn 23s
Bit rate mode : Constant
Bit rate : 192 Kbps
Channel(s) : 2 channels
Channel positions : Front: L R
Sampling rate : 48.0 KHz
Frame rate : 31.250 fps (1536 spf)
Compression mode : Lossy
Stream size : 72.0 MiB (10%)
Alignment : Split accross interleaves
Interleave, duration : 42 ms (1.00 video frame)
Interleave, preload duratio : 500 ms
Title : Original (korean)

Внимание! Раздача ведётся путём добавления новых серий; при каждом добавлении создаётся новый торрент. Чтобы начать докачку новой серии,пользователям необходимо сделать следующее:
(1) остановить скачивание,
(2) удалить старый торрент у себя из клиента (старые серии удалять не надо),
(3) скачать новый торрент и запустить его у себя в клиенте вместо старого, при этом указать клиенту путь в старую папку куда и должнопроисходить скачивание новых серий.

Ваш клиент при этом должен произвести хеширование (проверку) старой папки (если не производит сам - помогите ему сделать это), и будет докачивать только те серии
которых у вас ещё нет. Старые серии при этом не удаляются, а продолжают раздаваться!

Eсли вы уже удалили старые серии, то предотвратить повторную закачку старых серий можно, отжав галочку в соответствующих местах при запуске нового торрента.

По возможности, желательно не удалять старые серии как можно дольше чтобы релизёр не столько продолжал раздавать старые серии, а смог сконцентрироваться на новых.
pb.wtf



Скачать Королевство через торрент https://i5.imageban.ru/out/2020/03/17/dd67b425dc692e958acc5a69b6caffcb.jpg Скачать фильм Королевство через торрент бесплантно в хорошем качестве Описание: Чосон после разорительной войны. Долго болевший правитель умирает, но возвращается к жизни в виде плотоядной нежити, что ... 10 10 2
Торрент: Зарегистрирован [2020-03-17 14:51] · скачан: 73 раз
Статус: √ проверено
Размер: 3.8 GB
Как cкачать? Как скачать Королевство через торрент | UTorrent

% Раздел Тема Автор DL S | L
Зарубежные сериалы [ 749 MB ] Королевство / Kingdeom / Kingdom / Сезон: 2 / Серии: 1- из 6 [2020 WEB-DLRip] MVO [LostFilm] bober100 Скачать
1 | 0
Зарубежные сериалы [ 3.09 GB ] Королевство / Kingdeom / Kingdom / Сезон: 2 / Серии: 1- из 6 [2020 WEB-DL 1080p] MVO [LostFilm] bober100 Скачать
1 | 0
Зарубежные сериалы [ 13.14 GB ] Королевство / Kingdom / Сезон: 2 / Серии 1-6 из 6 [2020 WEB-DL 1080p] [MVO] killermax2013 Скачать
2 | 0
Зарубежные сериалы [ 17.03 GB ] Королевство / Kingdom / Сезон: 2 / Серии 1-6 из 6 [2020 WEBRip 1080p] [DVO] killermax2013 Скачать
1 | 0


Последний раз редактировалось: bober100 (2020-03-17 15:57), всего редактировалось 1 раз

28-11-2019 20:33  

Отключить всю рекламу на сайте

    Дорогой пользователь! Огромная просьба, поблагодарите релизера, оцените раздачу и оставьте свои комментарий, если Вы скачали Королевство через торрент бесплатно! Внесите свою лепту в развитие PiratBit!
    Комментировать посты могут только пользователи прошедшие не сложную регистрацию
    Показать сообщения:    

    Королевство через торрент
    Скачать бесплатно Королевство
    Королевство скачать торрент
    Королевство смотреть онлайн
    Cкачать фильм Королевство бесплатно
    Королевство скачать торрент в хорошем качестве
    Королевство смотреть онлайн бесплатно в хорошем качестве


    Вы не можете начинать темы
    Вы не можете отвечать на сообщения
    Вы не можете редактировать свои сообщения
    Вы не можете удалять свои сообщения
    Вы не можете голосовать в опросах
    Вы не можете прикреплять файлы к сообщениям
    Вы можете скачивать файлы