Ссылка на приватное зеркало всего за 1$. Внимание количество ограничено!!!

iTunes

iTunes

iTunes

1

iTunes

iTunes

iTunes

iTunes

iTunes

30
pack

Новость дня

ВАЖНО

!!Акция!!

Alien_RageХит недели

RePack

Resident Evil 21

ИГРА 18+

pack

RePack

jed

!!Акция!!

Alien_Rage

RePack

fifa19

RePack

Assassins Creed: Odyssey

RePack

NEED FOR SPEED™ PAYBACK

4 сезон

9 сезон

Бесстыжие 9 сезон

Все сериалы

все сериалы на PB.wtf

RePack

FAR CRY 5
  

В шаге от рая / Сезон: 1 / Серии: 1-16 из 16 (Евгений Семёнов) [2020, Мелодрама, драма, HDTV 1080i] pb.wtf

В шаге от рая через торрент pb.wtf

Размер: 42.52 GB | Добавлен: 13 д. назад | Торрент скачан:4 раза
Скачать  

17-03-2020 13:06 В шаге от рая Скачать торрент  

В шаге от рая
Год выпуска: 2020
Страна: Россия
Жанр: Мелодрама, драма
Продолжительность: ~ 00:50:00 серия
Субтитры: отсутствуют

Режиссер: Евгений Семёнов



В ролях: Мария Миронова мл., Ярослав Бойко, Игорь Бочкин, Анна Легчилова, Ольга Павловец, Надежда Маркина, Олег Чугунов, Илья Рябов, Иван Киренков, Светлана Новицкая

Описание: Это была обычная семья. Не лучше и не хуже других. Они были счастливы, но не понимали этого. В неожиданном крупном лотерейном выигрыше увидели шанс стать такими, каким хотели быть в глазах окружающих — красивыми, успешными, желанными, близкими друзьями, идеальными вторыми половинами. Деньги решили их внешние проблемы, но внутри семьи начался кромешный ад — а ведь им казалось, что они всего лишь в шаге от рая.

Качество: HDTV 1080i
Формат: TS

Видео: MPEG-4 AVC, ~ 7100 Кбит/с, 1920x1080, 25 кадр/с
Аудио: Русский (MP2, 2 ch, 192 Кбит/с)
скриншот  скриншот  скриншот  скриншот  

Общее
Идентификатор : 1 (0x1)
Полное имя : D:\V.shage.ot.raya.2020.HDTV.1080i\V.shage.ot.raya.01.2020.HDTV.1080i.ts
Формат : MPEG-TS
Размер файла : 2,67 Гбайт
Продолжительность : 49 м. 53 с.
Режим общего битрейта : Переменный
Общий поток : 7652 Кбит/сек

Видео
Идентификатор : 2911 (0xB5F)
Идентификатор меню : 1485 (0x5CD)
Формат : AVC
Формат/Информация : Advanced Video Codec
Профиль формата : High@L4
Параметр CABAC формата : Да
Параметр RefFrames формата : 4 кадра
Идентификатор кодека : 27
Продолжительность : 49 м. 53 с.
Битрейт : 7080 Кбит/сек
Ширина : 1920 пикселей
Высота : 1080 пикселей
Соотношение сторон : 16:9
Частота кадров : 25,000 кадров/сек
Цветовое пространство : YUV
Субдискретизация насыщенности : 4:2:0
Битовая глубина : 8 бит
Тип развёртки : MBAFF
Метод сохранения типа развёртки : Чередующиеся поля
Порядок развёртки : Верхнее поле первое
Бит/(Пиксели*Кадры) : 0.137
Размер потока : 2,47 Гбайт (93%)

Аудио
Идентификатор : 2912 (0xB60)
Идентификатор меню : 1485 (0x5CD)
Формат : MPEG Audio
Версия формата : Version 1
Профиль формата : Layer 2
Режим : Joint stereo
Расширение режима : Intensity Stereo + MS Stereo
Идентификатор кодека : 3
Продолжительность : 49 м. 53 с.
Вид битрейта : Постоянный
Битрейт : 192 Кбит/сек
Каналы : 2 канала
Частота : 48,0 КГц
Метод сжатия : С потерями
Размер потока : 68,5 Мбайт (3%)
Язык : Russian

Внимание! Раздача ведётся путём добавления новых серий; при каждом добавлении создаётся новый торрент.
Чтобы начать докачку новой серии, пользователям необходимо сделать следующее:
1. Остановить скачивание;
2. Удалить старый торрент у себя из клиента (старые серии удалять не надо);
3. Скачать новый торрент и запустить его у себя в клиенте вместо старого, при этом указать клиенту путь в старую папку куда и должно происходить скачивание новых серий. Ваш клиент при этом должен произвести хеширование (проверку) старой папки и будет докачивать только те серии, которых у вас ещё нет. Старые серии при этом не удаляются, а продолжают раздаваться! Eсли вы уже удалили старые серии, то предотвратить повторную закачку старых серий можно, отжав галочку в соответствующих местах при запуске нового торрента.
pb.wtf



Скачать В шаге от рая через торрент https://i111.fastpic.ru/big/2020/0316/6a/7e444fe186711f8f692ea9a74158816a.jpg Скачать фильм В шаге от рая через торрент бесплантно в хорошем качестве Описание: Это была обычная семья. Не лучше и не хуже других. Они были счастливы, но не понимали этого. В неожиданном крупном лотерейном ... 8.2 10 5
Торрент: Зарегистрирован [2020-03-27 04:50] · скачан: 4 раз
Статус: √ проверено
Размер: 42.52 GB
Как cкачать? Как скачать В шаге от рая через торрент | qTorrent

% Раздел Тема Автор DL S | L
Наши сериалы [ 20.6 GB ] В шаге от рая / Сезон: 1 / Серии: 1-16 из 16 [2020 Мело HDTVRip 720p] bober100 Скачать
1 | 0

28-11-2019 20:33  

Отключить всю рекламу на сайте

    Дорогой пользователь! Огромная просьба, поблагодарите релизера, оцените раздачу и оставьте свои комментарий, если Вы скачали В шаге от рая через торрент бесплатно! Внесите свою лепту в развитие PiratBit!
    Комментировать посты могут только пользователи прошедшие не сложную регистрацию
    Показать сообщения:    

    В шаге от рая через торрент
    Скачать бесплатно В шаге от рая
    В шаге от рая скачать торрент
    В шаге от рая смотреть онлайн
    Cкачать фильм В шаге от рая бесплатно
    В шаге от рая скачать торрент в хорошем качестве
    В шаге от рая смотреть онлайн бесплатно в хорошем качестве


    Вы не можете начинать темы
    Вы не можете отвечать на сообщения
    Вы не можете редактировать свои сообщения
    Вы не можете удалять свои сообщения
    Вы не можете голосовать в опросах
    Вы не можете прикреплять файлы к сообщениям
    Вы можете скачивать файлы